[4K记录视频] [国家地理] 北极光(2018)[2160P/MKV/394MB]

[复制链接]

2263

主题

2552

帖子

2万

积分

超级版主

Rank: 8Rank: 8

积分
21158
 楼主| 发表于 2021-3-24 11:05:22 | 显示全部楼层 |阅读模式

北极光(394.47MB)(2018)WEBRip 2160p.mkv_20210303_205129.945.jpg 北极光(394.47MB)(2018)WEBRip 2160p.mkv_20210303_205141.519.jpg 北极光(394.47MB)(2018)WEBRip 2160p.mkv_20210303_205148.726.jpg 北极光(394.47MB)(2018)WEBRip 2160p.mkv_20210303_205154.679.jpg 北极光(394.47MB)(2018)WEBRip 2160p.mkv_20210303_205205.503.jpg 北极光(394.47MB)(2018)WEBRip 2160p.mkv_20210303_205220.286.jpg

有关信息
标题: North and Light
发行日期: 2018
国家/地区:法国
时长: 00 : 03 : 16
体裁: Species
导演: Pat Foch is

关于电影:

       在大北方的惊人灯光和色彩下跑步和滑雪。



General
Complete name                  : G:\国家地理\北极光(394.47MB)(2018)WEBRip 2160p.mkv
Format                         : Matroska
Format version                 : Version 4
File size                      : 394 MiB
Duration                       : 3 min 16 s
Overall bit rate               : 16.8 Mb/s
Encoded date                   : UTC 2021-01-27 16:05:55
Writing application            : mkvmerge v52.0.0 ('Secret For The Mad') 64-bit
Writing library                : libebml v1.4.1 + libmatroska v1.6.2

Video
ID                             : 1
Format                         : AVC
Format/Info                    : Advanced Video Codec
Format profile                 : High@L5.2
Format settings                : CABAC / 5 Ref Frames
Format settings, CABAC         : Yes
Format settings, Reference fra : 5 frames
Codec ID                       : V_MPEG4/ISO/AVC
Duration                       : 3 min 16 s
Bit rate                       : 16.6 Mb/s
Width                          : 3 840 pixels
Height                         : 2 160 pixels
Display aspect ratio           : 16:9
Frame rate mode                : Constant
Frame rate                     : 25.000 FPS
Color space                    : YUV
Chroma subsampling             : 4:2:0
Bit depth                      : 8 bits
Scan type                      : Progressive
Bits/(Pixel*Frame)             : 0.080
Stream size                    : 388 MiB (98%)
Writing library                : x264 core 155 r10 b00bcaf
Encoding settings              : cabac=1 / ref=5 / deblock=1:0:0 / analyse=0x3:0x113 / me=hex / subme=8 / psy=1 / psy_rd=1.00:0.00 / mixed_ref=1 / me_range=16 / chroma_me=1 / trellis=2 / 8x8dct=1 / cqm=0 / deadzone=21,11 / fast_pskip=1 / chroma_qp_offset=-2 / threads=48 / lookahead_threads=8 / sliced_threads=0 / nr=0 / decimate=1 / interlaced=0 / bluray_compat=0 / stitchable=1 / constrained_intra=0 / bframes=3 / b_pyramid=2 / b_adapt=2 / b_bias=0 / direct=3 / weightb=1 / open_gop=0 / weightp=2 / keyint=infinite / keyint_min=25 / scenecut=40 / intra_refresh=0 / rc_lookahead=50 / rc=crf / mbtree=1 / crf=20.0 / qcomp=0.60 / qpmin=5 / qpmax=69 / qpstep=4 / vbv_maxrate=24200 / vbv_bufsize=66000 / crf_max=0.0 / nal_hrd=none / filler=0 / ip_ratio=1.40 / aq=1:1.00
Default                        : Yes
Forced                         : No
Color range                    : Limited
Color primaries                : BT.709
Transfer characteristics       : BT.709
Matrix coefficients            : BT.709

Audio
ID                             : 2
Format                         : AAC LC
Format/Info                    : Advanced Audio Codec Low Complexity
Codec ID                       : A_AAC-2
Duration                       : 3 min 16 s
Bit rate                       : 256 kb/s
Channel(s)                     : 2 channels
Channel layout                 : L R
Sampling rate                  : 48.0 kHz
Frame rate                     : 46.875 FPS (1024 SPF)
Compression mode               : Lossy
Stream size                    : 6.00 MiB (2%)
Default                        : Yes
Forced                         : No





北极光(2018)WEBRip 2160p.torrent (16.41 KB, 售价: 15 金币)
回复

使用道具 举报

48

主题

1375

帖子

3995

积分

4K家园VIP

Rank: 9Rank: 9Rank: 9

积分
3995
发表于 2021-3-24 11:05:36 | 显示全部楼层
不错 支持下
回复 支持 反对

使用道具 举报

0

主题

3521

帖子

9861

积分

4K家园VIP

Rank: 9Rank: 9Rank: 9

积分
9861
发表于 2021-3-24 11:22:25 | 显示全部楼层
北极光4k
回复

使用道具 举报

40

主题

1360

帖子

3898

积分

4K家园VIP

Rank: 9Rank: 9Rank: 9

积分
3898
发表于 2021-3-25 07:21:23 | 显示全部楼层
4K电影下个试试
回复 支持 反对

使用道具 举报

3

主题

1461

帖子

3979

积分

4K家园VIP

Rank: 9Rank: 9Rank: 9

积分
3979
发表于 2021-3-26 14:00:21 | 显示全部楼层
这么强,支持楼主,佩服
回复 支持 反对

使用道具 举报

0

主题

418

帖子

1432

积分

注册会员

Rank: 2

积分
1432
发表于 2021-3-30 21:38:07 | 显示全部楼层
感谢楼主分享
回复 支持 反对

使用道具 举报

0

主题

1497

帖子

4119

积分

4K家园VIP

Rank: 9Rank: 9Rank: 9

积分
4119
发表于 2021-4-2 07:58:57 来自手机 | 显示全部楼层
顶起顶起顶起
回复 支持 反对

使用道具 举报

4

主题

1084

帖子

3280

积分

4K家园VIP

Rank: 9Rank: 9Rank: 9

积分
3280
发表于 5 天前 | 显示全部楼层
广告位,,坐下看看
回复 支持 反对

使用道具 举报

您需要登录后才可以回帖 登录 | 立即注册

本版积分规则

精彩图文
Archiver|手机版|TAG|Sitemap|新帖|专题|联系我们:邮箱: 4kjia.com@gmail.com   

4k家园   ©2019