[4K测试视频] [国家地理] 博帕尔-湖泊之城(2020)[2160P/MKV/306MB]

[复制链接]

2262

主题

2551

帖子

2万

积分

超级版主

Rank: 8Rank: 8

积分
21144
 楼主| 发表于 2021-3-14 11:30:00 | 显示全部楼层 |阅读模式

博帕尔-湖泊之城(2020)WEBRip 2160p.mkv_20210311_205938.373.jpg 博帕尔-湖泊之城(2020)WEBRip 2160p.mkv_20210311_205946.302.jpg 博帕尔-湖泊之城(2020)WEBRip 2160p.mkv_20210311_205954.086.jpg 博帕尔-湖泊之城(2020)WEBRip 2160p.mkv_20210311_210022.598.jpg 博帕尔-湖泊之城(2020)WEBRip 2160p.mkv_20210311_210001.782.jpg 博帕尔-湖泊之城(2020)WEBRip 2160p.mkv_20210311_210032.814.jpg


有关信息
标题:博帕尔-湖泊之城
发行: 2020
国家/地区:印度
持续时间: 00 : 03 : 05
类型: 物种
导演: Shoaib Khan

关于电影:

       最近几个月,我试图捕捉这座城市的所有壮丽景色并以电影形式展示它们。


General
Complete name                  : J:\博帕尔-湖泊之城(2020)WEBRip 2160p.mkv
Format                         : Matroska
Format version                 : Version 4
File size                      : 306 MiB
Duration                       : 3 min 5 s
Overall bit rate               : 13.8 Mb/s
Encoded date                   : UTC 2021-01-26 17:46:01
Writing application            : mkvmerge v52.0.0 ('Secret For The Mad') 64-bit
Writing library                : libebml v1.4.1 + libmatroska v1.6.2 / Lavf58.29.100

Video
ID                             : 1
Format                         : VP9
Codec ID                       : V_VP9
Duration                       : 3 min 5 s
Bit rate                       : 13.7 Mb/s
Width                          : 3 840 pixels
Height                         : 2 160 pixels
Display aspect ratio           : 16:9
Frame rate mode                : Constant
Frame rate                     : 23.976 (24000/1001) FPS
Color space                    : YUV
Bits/(Pixel*Frame)             : 0.069
Stream size                    : 304 MiB (99%)
Default                        : Yes
Forced                         : No
Color range                    : Limited
Color primaries                : BT.709
Transfer characteristics       : BT.709
Matrix coefficients            : BT.709

Audio
ID                             : 2
Format                         : Opus
Codec ID                       : A_OPUS
Duration                       : 3 min 5 s
Bit rate                       : 128 kb/s
Channel(s)                     : 2 channels
Channel layout                 : L R
Sampling rate                  : 48.0 kHz
Frame rate                     : 50.002 FPS (960 SPF)
Compression mode               : Lossy
Stream size                    : 2.83 MiB (1%)
Default                        : Yes
Forced                         : No



下载链接: 博帕尔-湖泊之城(306MB)(2020)WEBRip 2160p.torrent (12.96 KB, 售价: 15 金币)
回复

使用道具 举报

0

主题

1216

帖子

3660

积分

4K家园VIP

Rank: 9Rank: 9Rank: 9

积分
3660
发表于 2021-3-14 11:30:10 | 显示全部楼层
我也顶起出售广告位
回复 支持 反对

使用道具 举报

0

主题

3503

帖子

9830

积分

4K家园VIP

Rank: 9Rank: 9Rank: 9

积分
9830
发表于 2021-3-14 11:31:11 | 显示全部楼层
印度博帕尔-湖泊之城4k
回复 支持 反对

使用道具 举报

2

主题

1588

帖子

4394

积分

4K家园VIP

Rank: 9Rank: 9Rank: 9

积分
4394
发表于 2021-3-14 17:11:53 来自手机 | 显示全部楼层
支持你哈...................................
回复 支持 反对

使用道具 举报

40

主题

1386

帖子

3988

积分

4K家园VIP

Rank: 9Rank: 9Rank: 9

积分
3988
发表于 2021-3-15 04:00:13 | 显示全部楼层
有4K版啦,下个看下
回复 支持 反对

使用道具 举报

0

主题

1077

帖子

3243

积分

4K家园VIP

Rank: 9Rank: 9Rank: 9

积分
3243
发表于 2021-3-15 20:18:43 | 显示全部楼层
楼下的接上
回复 支持 反对

使用道具 举报

1

主题

1283

帖子

3691

积分

4K家园VIP

Rank: 9Rank: 9Rank: 9

积分
3691
发表于 2021-3-19 00:40:16 | 显示全部楼层
鄙视楼下的顶帖没我快,哈哈
回复 支持 反对

使用道具 举报

0

主题

418

帖子

1432

积分

注册会员

Rank: 2

积分
1432
发表于 2021-3-20 20:55:48 | 显示全部楼层
感谢分享好电影~
回复 支持 反对

使用道具 举报

匿名  发表于 2021-3-20 21:47:01

印度博帕尔-湖泊之城4k
回复 支持 反对

使用道具

您需要登录后才可以回帖 登录 | 立即注册

本版积分规则

精彩图文
Archiver|手机版|TAG|Sitemap|新帖|专题|联系我们:邮箱: 4kjia.com@gmail.com   

4k家园   ©2019