[4K记录视频] [国家地理] 法罗群岛(2020)[2160P/MKV/384MB]

[复制链接]

2262

主题

2551

帖子

2万

积分

超级版主

Rank: 8Rank: 8

积分
21144
 楼主| 发表于 2021-3-17 15:30:00 | 显示全部楼层 |阅读模式

法罗群岛(2020)WEBRip 2160p.mkv_20210311_212104.954.jpg 法罗群岛(2020)WEBRip 2160p.mkv_20210311_212112.598.jpg 法罗群岛(2020)WEBRip 2160p.mkv_20210311_212124.190.jpg 法罗群岛(2020)WEBRip 2160p.mkv_20210311_212137.110.jpg

关于信息
标题:法罗群岛
发行时间: 2020
国家/地区:丹麦
时长: 00 : 04 : 14
类型: 种
导演:埃利斯面包车由Jason
演员:。

关于电影:

        2年前,我和一位朋友一起参观了法罗群岛。大自然和巨大的岩石给我留下了深刻的印象。在开始FPV之后,我的绝对目标是回到并潜入这些岩石。因此,我和两个朋友一起回去拍摄了一段创意视频,作为旅行建议。我知道由于大风和不可预测的天气会很困难。这绝对不容易,但是值得。请享用!


General
Complete name                  : J:\法罗群岛(2020)WEBRip 2160p.mkv
Format                         : Matroska
Format version                 : Version 4
File size                      : 385 MiB
Duration                       : 4 min 14 s
Overall bit rate               : 12.7 Mb/s
Encoded date                   : UTC 2021-01-26 17:11:33
Writing application            : mkvmerge v52.0.0 ('Secret For The Mad') 64-bit
Writing library                : libebml v1.4.1 + libmatroska v1.6.2 / Lavf58.29.100

Video
ID                             : 1
Format                         : VP9
Codec ID                       : V_VP9
Duration                       : 4 min 14 s
Bit rate                       : 12.5 Mb/s
Width                          : 3 840 pixels
Height                         : 1 644 pixels
Display aspect ratio           : 2.35:1
Frame rate mode                : Constant
Frame rate                     : 30.000 FPS
Color space                    : YUV
Bits/(Pixel*Frame)             : 0.066
Stream size                    : 381 MiB (99%)
Default                        : Yes
Forced                         : No
Color range                    : Limited
Color primaries                : BT.709
Transfer characteristics       : BT.709
Matrix coefficients            : BT.709

Audio
ID                             : 2
Format                         : AAC LC
Format/Info                    : Advanced Audio Codec Low Complexity
Codec ID                       : A_AAC-2
Duration                       : 4 min 14 s
Bit rate                       : 128 kb/s
Channel(s)                     : 2 channels
Channel layout                 : L R
Sampling rate                  : 44.1 kHz
Frame rate                     : 43.066 FPS (1024 SPF)
Compression mode               : Lossy
Stream size                    : 3.89 MiB (1%)
Default                        : Yes
Forced                         : No



下载链接: 法罗群岛(384MB)(2020)WEBRip 2160p.torrent (16.05 KB, 售价: 15 金币)
回复

使用道具 举报

51

主题

1393

帖子

3975

积分

4K家园VIP

Rank: 9Rank: 9Rank: 9

积分
3975
发表于 2021-3-17 15:30:05 | 显示全部楼层
LZ是天才,坚定完毕
回复 支持 反对

使用道具 举报

0

主题

3503

帖子

9830

积分

4K家园VIP

Rank: 9Rank: 9Rank: 9

积分
9830
发表于 2021-3-17 15:42:20 | 显示全部楼层
丹麦法罗群岛4k
回复 支持 反对

使用道具 举报

0

主题

413

帖子

1414

积分

注册会员

Rank: 2

积分
1414
发表于 2021-3-19 20:25:44 | 显示全部楼层
感谢楼主分享
回复 支持 反对

使用道具 举报

0

主题

1178

帖子

3546

积分

4K家园VIP

Rank: 9Rank: 9Rank: 9

积分
3546
发表于 2021-3-21 04:51:00 | 显示全部楼层
为了三千积分!
回复 支持 反对

使用道具 举报

1

主题

1567

帖子

4309

积分

4K家园VIP

Rank: 9Rank: 9Rank: 9

积分
4309
发表于 2021-3-22 14:54:33 | 显示全部楼层
楼下的接上
回复 支持 反对

使用道具 举报

2

主题

1192

帖子

3598

积分

4K家园VIP

Rank: 9Rank: 9Rank: 9

积分
3598
发表于 2021-3-25 19:25:09 | 显示全部楼层
前排,哇咔咔
回复 支持 反对

使用道具 举报

0

主题

1185

帖子

3401

积分

4K家园VIP

Rank: 9Rank: 9Rank: 9

积分
3401
发表于 2021-3-31 21:32:45 | 显示全部楼层
怎么这么大,希望我电视能看啊
回复 支持 反对

使用道具 举报

您需要登录后才可以回帖 登录 | 立即注册

本版积分规则

精彩图文
Archiver|手机版|TAG|Sitemap|新帖|专题|联系我们:邮箱: 4kjia.com@gmail.com   

4k家园   ©2019