[4K记录视频] [国家地理] 洛杉矶的冬天(2019)[2160P/MKV/499MB]

[复制链接]

2275

主题

2564

帖子

2万

积分

超级版主

Rank: 8Rank: 8

积分
21305
 楼主| 发表于 2021-3-19 11:00:00 | 显示全部楼层 |阅读模式
洛杉矶的冬天(2019)WE​​BRip 2160p.mkv_20210311_213556.804.jpg 洛杉矶的冬天(2019)WE​​BRip 2160p.mkv_20210311_213606.565.jpg 洛杉矶的冬天(2019)WE​​BRip 2160p.mkv_20210311_213615.326.jpg 洛杉矶的冬天(2019)WE​​BRip 2160p.mkv_20210311_213620.327.jpg 洛杉矶的冬天(2019)WE​​BRip 2160p.mkv_20210311_213626.125.jpg 洛杉矶的冬天(2019)WE​​BRip 2160p.mkv_20210311_213632.117.jpg

有关信息
标题:洛杉矶的冬天
发行年: 2019
国家/地区:美国
持续时间: 00:04 : 09
体裁: 种属
导演: Emeric Le Bars

关于电影:

        欢迎来到冬天的洛杉矶。



General
Unique ID                      : 104642219316955475664899405097796257353 (0x4EB95BBDACE37EDE4C05DEE8CC924649)
Complete name                  : J:\洛杉矶的冬天(2019)WE​​BRip 2160p.mkv
Format                         : Matroska
Format version                 : Version 4
File size                      : 499 MiB
Duration                       : 4 min 9 s
Overall bit rate               : 16.8 Mb/s
Encoded date                   : UTC 2021-01-14 15:30:43
Writing application            : mkvmerge v52.0.0 ('Secret For The Mad') 64-bit
Writing library                : libebml v1.4.1 + libmatroska v1.6.2

Video
ID                             : 1
Format                         : AVC
Format/Info                    : Advanced Video Codec
Format profile                 : High@L5.2
Format settings                : CABAC / 5 Ref Frames
Format settings, CABAC         : Yes
Format settings, Reference fra : 5 frames
Codec ID                       : V_MPEG4/ISO/AVC
Duration                       : 4 min 9 s
Bit rate                       : 16.7 Mb/s
Width                          : 4 096 pixels
Height                         : 1 678 pixels
Display aspect ratio           : 2.40:1
Frame rate mode                : Constant
Frame rate                     : 29.970 (30000/1001) FPS
Color space                    : YUV
Chroma subsampling             : 4:2:0
Bit depth                      : 8 bits
Scan type                      : Progressive
Bits/(Pixel*Frame)             : 0.081
Stream size                    : 495 MiB (99%)
Writing library                : x264 core 157 r10 d4099dd
Encoding settings              : cabac=1 / ref=5 / deblock=1:0:0 / analyse=0x3:0x113 / me=hex / subme=8 / psy=1 / psy_rd=1.00:0.00 / mixed_ref=1 / me_range=16 / chroma_me=1 / trellis=2 / 8x8dct=1 / cqm=0 / deadzone=21,11 / fast_pskip=1 / chroma_qp_offset=-2 / threads=48 / lookahead_threads=8 / sliced_threads=0 / nr=0 / decimate=1 / interlaced=0 / bluray_compat=0 / stitchable=1 / constrained_intra=0 / bframes=3 / b_pyramid=2 / b_adapt=2 / b_bias=0 / direct=3 / weightb=1 / open_gop=0 / weightp=2 / keyint=infinite / keyint_min=29 / scenecut=40 / intra_refresh=0 / rc_lookahead=50 / rc=crf / mbtree=1 / crf=20.0 / qcomp=0.60 / qpmin=5 / qpmax=69 / qpstep=4 / vbv_maxrate=24200 / vbv_bufsize=66000 / crf_max=0.0 / nal_hrd=none / filler=0 / ip_ratio=1.40 / aq=1:1.00
Default                        : Yes
Forced                         : No
Color range                    : Limited
Color primaries                : BT.709
Transfer characteristics       : BT.709
Matrix coefficients            : BT.709

Audio
ID                             : 2
Format                         : AAC LC
Format/Info                    : Advanced Audio Codec Low Complexity
Codec ID                       : A_AAC-2
Duration                       : 4 min 9 s
Bit rate                       : 137 kb/s
Channel(s)                     : 2 channels
Channel layout                 : L R
Sampling rate                  : 48.0 kHz
Frame rate                     : 46.875 FPS (1024 SPF)
Compression mode               : Lossy
Stream size                    : 4.07 MiB (1%)
Default                        : Yes
Forced                         : No



下载链接: 洛杉矶的冬天(499MB)(2019)WE​​BRip 2160p.torrent (20.52 KB, 售价: 15 金币)
回复

使用道具 举报

2

主题

1133

帖子

3415

积分

4K家园VIP

Rank: 9Rank: 9Rank: 9

积分
3415
发表于 2021-3-19 11:00:04 | 显示全部楼层
什么东西啊
回复 支持 反对

使用道具 举报

0

主题

3686

帖子

1万

积分

4K家园VIP

Rank: 9Rank: 9Rank: 9

积分
10133
发表于 2021-3-19 11:58:51 | 显示全部楼层
洛杉矶的冬天4k
回复 支持 反对

使用道具 举报

0

主题

10

帖子

4705

积分

中级会员

Rank: 4

积分
4705
发表于 2021-3-19 14:17:56 | 显示全部楼层
好想看看哦
回复 支持 反对

使用道具 举报

39

主题

1296

帖子

3651

积分

4K家园VIP

Rank: 9Rank: 9Rank: 9

积分
3651
发表于 2021-3-19 19:24:50 | 显示全部楼层
LZ帖子不给力,勉强给回复下吧
回复 支持 反对

使用道具 举报

0

主题

5

帖子

18

积分

新手上路

Rank: 1

积分
18
发表于 2021-3-21 21:28:13 | 显示全部楼层
谢谢分享
回复

使用道具 举报

0

主题

3

帖子

15

积分

新手上路

Rank: 1

积分
15
发表于 2021-3-23 21:42:31 来自手机 | 显示全部楼层
唉没有会员下不了啊
回复 支持 反对

使用道具 举报

0

主题

1197

帖子

3607

积分

4K家园VIP

Rank: 9Rank: 9Rank: 9

积分
3607
发表于 2021-3-31 07:12:33 | 显示全部楼层
鼎力支持!!
回复 支持 反对

使用道具 举报

0

主题

1184

帖子

3398

积分

4K家园VIP

Rank: 9Rank: 9Rank: 9

积分
3398
发表于 2021-4-5 08:14:07 | 显示全部楼层
好帖必须得顶起
回复 支持 反对

使用道具 举报

0

主题

1198

帖子

3604

积分

4K家园VIP

Rank: 9Rank: 9Rank: 9

积分
3604
发表于 2021-4-5 16:21:13 | 显示全部楼层
发发呆,回回帖,工作结束~
回复 支持 反对

使用道具 举报

您需要登录后才可以回帖 登录 | 立即注册

本版积分规则

精彩图文
Archiver|手机版|TAG|Sitemap|新帖|专题|联系我们:邮箱: 4kjia.com@gmail.com   

4k家园   ©2019