[4K电影] [4K首发资源]布洛克岛秘音/The Block Island Sound 4K高清下载/10.73G

[复制链接]

426

主题

441

帖子

4236

积分

4K家园VIP

Rank: 9Rank: 9Rank: 9

积分
4236
 楼主| 发表于 2021-3-15 10:00:06 | 显示全部楼层 |阅读模式
本帖最后由 最爱4K哟 于 2021-3-31 13:12 编辑

p2622886408.webp_副本.jpg

◎译  名 闭岛之音
◎片  名 The Block Island Sound
◎年  代 2020
◎产  地 美国
◎类  别 惊悚
◎语  言 英语
◎上映日期 2020-08-28(美国)
◎IMDb评分 5.3/10 from 273 users
◎IMDb链接 https://www.imdb.com/title/tt8747160/
◎豆瓣评分 /10 from 0 users
◎豆瓣链接 https://movie.douban.com/subject/35076626/
◎片  长 97分钟
◎导  演 马修·麦克马纳斯 Matthew McManus / 凯文·麦克马纳斯 Kevin McManus
◎编  剧 马修·麦克马纳斯 Matthew McManus / 凯文·麦克马纳斯 Kevin McManus
◎主  演 米凯拉·麦克曼努斯 Michaela McManus
      吉姆·卡明斯 Jim Cummings
      内维尔·阿尔汉博 Neville Archambault
      Ryan O'Flanagan
      杰里米·S·霍尔姆 Jeremy Holm
      克里斯·谢菲尔德 Chris Sheffield
      威利·C·卡彭特 Willie C. Carpenter


◎简  介

  布洛克岛海岸发生了可怕的事情。一股奇怪的力量正在蓬勃发展,影响着居民和野生动物。


General
Complete name                  : The.Block.Island.Sound.2020.WEB-DL.2160p.SDR.seleZen.mkv
Format                         : Matroska
Format version                 : Version 4
File size                      : 10.7 GiB
Duration                       : 1 h 39 min
Overall bit rate               : 15.5 Mb/s
Movie name                     : The Block Island Sound 2020 from seleZen
Encoded date                   : UTC 2021-03-14 22:09:27
Writing application            : mkvmerge v55.0.0 ('Waiting For Space') 64-bit
Writing library                : libebml v1.4.2 + libmatroska v1.6.4

Video
ID                             : 1
Format                         : HEVC
Format/Info                    : High Efficiency Video Coding
Format profile                 : Main@L5.1@High
Codec ID                       : V_MPEGH/ISO/HEVC
Duration                       : 1 h 39 min
Bit rate                       : 14.0 Mb/s
Width                          : 3 840 pixels
Height                         : 1 600 pixels
Display aspect ratio           : 2.40:1
Frame rate mode                : Constant
Frame rate                     : 23.976 (24000/1001) FPS
Color space                    : YUV
Chroma subsampling             : 4:2:0
Bit depth                      : 8 bits
Bits/(Pixel*Frame)             : 0.095
Stream size                    : 9.67 GiB (90%)
Writing library                : x265 3.4+2-73ca1d7be377:[Windows][GCC 10.2.1][64 bit] 8bit+10bit
Encoding settings              : cpuid=1111039 / frame-threads=4 / numa-pools=16 / wpp / no-pmode / no-pme / no-psnr / no-ssim / log-level=2 / input-csp=1 / input-res=3840x1600 / interlace=0 / total-frames=0 / level-idc=51 / high-tier=1 / uhd-bd=0 / ref=4 / no-allow-non-conformance / no-repeat-headers / annexb / aud / hrd / info / hash=0 / no-temporal-layers / no-open-gop / min-keyint=23 / keyint=250 / gop-lookahead=0 / bframes=4 / b-adapt=2 / b-pyramid / bframe-bias=0 / rc-lookahead=20 / lookahead-slices=4 / scenecut=40 / hist-scenecut=0 / radl=0 / no-splice / no-intra-refresh / ctu=64 / min-cu-size=8 / rect / no-amp / max-tu-size=32 / tu-inter-depth=1 / tu-intra-depth=1 / limit-tu=0 / rdoq-level=0 / dynamic-rd=0.00 / no-ssim-rd / signhide / no-tskip / nr-intra=0 / nr-inter=0 / no-constrained-intra / no-strong-intra-smoothing / max-merge=3 / limit-refs=1 / no-limit-modes / me=1 / subme=2 / merange=57 / temporal-mvp / no-frame-dup / no-hme / weightp / no-weightb / no-analyze-src-pics / deblock=-3:-3 / no-sao / no-sao-non-deblock / rd=3 / selective-sao=0 / early-skip / rskip / no-fast-intra / no-tskip-fast / no-cu-lossless / b-intra / no-splitrd-skip / rdpenalty=0 / psy-rd=2.00 / psy-rdoq=0.00 / no-rd-refine / no-lossless / cbqpoffs=0 / crqpoffs=0 / rc=crf / crf=19.0 / qcomp=0.60 / qpstep=4 / stats-write=0 / stats-read=0 / vbv-maxrate=160000 / vbv-bufsize=160000 / vbv-init=0.9 / crf-max=0.0 / crf-min=0.0 / ipratio=1.40 / pbratio=1.30 / aq-mode=2 / aq-strength=1.00 / no-cutree / zone-count=0 / no-strict-cbr / qg-size=32 / no-rc-grain / qpmax=69 / qpmin=0 / no-const-vbv / sar=0 / overscan=0 / videoformat=5 / range=0 / colorprim=1 / transfer=1 / colormatrix=1 / chromaloc=0 / display-window=0 / cll=0,0 / min-luma=0 / max-luma=255 / log2-max-poc-lsb=8 / vui-timing-info / vui-hrd-info / slices=1 / no-opt-qp-pps / no-opt-ref-list-length-pps / no-multi-pass-opt-rps / scenecut-bias=0.05 / hist-threshold=0.01 / no-opt-cu-delta-qp / no-aq-motion / no-hdr10 / no-hdr10-opt / no-dhdr10-opt / no-idr-recovery-sei / analysis-reuse-level=0 / analysis-save-reuse-level=0 / analysis-load-reuse-level=0 / scale-factor=0 / refine-intra=0 / refine-inter=0 / refine-mv=1 / refine-ctu-distortion=0 / no-limit-sao / ctu-info=0 / no-lowpass-dct / refine-analysis-type=0 / copy-pic=1 / max-ausize-factor=1.0 / no-dynamic-refine / no-single-sei / no-hevc-aq / no-svt / no-field / qp-adaptation-range=1.00 / no-scenecut-aware-qpconformance-window-offsets / right=0 / bottom=0 / decoder-max-rate=0
Language                       : English
Default                        : Yes
Forced                         : No
Color range                    : Limited
Color primaries                : BT.709
Transfer characteristics       : BT.709
Matrix coefficients            : BT.709

Audio #1
ID                             : 2
Format                         : E-AC-3
Format/Info                    : Enhanced AC-3
Commercial name                : Dolby Digital Plus
Codec ID                       : A_EAC3
Duration                       : 1 h 39 min
Bit rate mode                  : Constant
Bit rate                       : 448 kb/s
Channel(s)                     : 6 channels
Channel layout                 : L R C LFE Ls Rs
Sampling rate                  : 48.0 kHz
Frame rate                     : 31.250 FPS (1536 SPF)
Compression mode               : Lossy
Stream size                    : 317 MiB (3%)
Title                          : Dub [Netflix]
Language                       : Russian
Service kind                   : Complete Main
Default                        : Yes
Forced                         : Yes

Audio #2
ID                             : 3
Format                         : AC-3
Format/Info                    : Audio Coding 3
Commercial name                : Dolby Digital
Codec ID                       : A_AC3
Duration                       : 1 h 39 min
Bit rate mode                  : Constant
Bit rate                       : 448 kb/s
Channel(s)                     : 6 channels
Channel layout                 : L R C LFE Ls Rs
Sampling rate                  : 48.0 kHz
Frame rate                     : 31.250 FPS (1536 SPF)
Compression mode               : Lossy
Stream size                    : 317 MiB (3%)
Title                          : Dub [Netflix]
Language                       : Russian
Service kind                   : Complete Main
Default                        : No
Forced                         : No

Audio #3
ID                             : 4
Format                         : E-AC-3
Format/Info                    : Enhanced AC-3
Commercial name                : Dolby Digital Plus
Codec ID                       : A_EAC3
Duration                       : 1 h 39 min
Bit rate mode                  : Constant
Bit rate                       : 640 kb/s
Channel(s)                     : 6 channels
Channel layout                 : L R C LFE Ls Rs
Sampling rate                  : 48.0 kHz
Frame rate                     : 31.250 FPS (1536 SPF)
Compression mode               : Lossy
Stream size                    : 453 MiB (4%)
Title                          : Original
Language                       : English
Service kind                   : Complete Main
Default                        : No
Forced                         : No

Text #1
ID                             : 5
Format                         : UTF-8
Codec ID                       : S_TEXT/UTF8
Codec ID/Info                  : UTF-8 Plain Text
Duration                       : 1 h 1 min
Bit rate                       : 1 b/s
Count of elements              : 14
Stream size                    : 647 Bytes (0%)
Title                          : Forced
Language                       : Russian
Default                        : Yes
Forced                         : Yes

Text #2
ID                             : 6
Format                         : UTF-8
Codec ID                       : S_TEXT/UTF8
Codec ID/Info                  : UTF-8 Plain Text
Duration                       : 1 h 36 min
Bit rate                       : 60 b/s
Count of elements              : 946
Stream size                    : 42.8 KiB (0%)
Title                          : Full
Language                       : Russian
Default                        : No
Forced                         : No

Text #3
ID                             : 7
Format                         : UTF-8
Codec ID                       : S_TEXT/UTF8
Codec ID/Info                  : UTF-8 Plain Text
Duration                       : 1 h 33 min
Bit rate                       : 49 b/s
Count of elements              : 1086
Stream size                    : 34.1 KiB (0%)
Language                       : English
Default                        : No
Forced                         : No

The.Block.Island.Sound.2020.WEB-DL.2160p.SDR.seleZen.mkv_20210315_155318.546.jpg The.Block.Island.Sound.2020.WEB-DL.2160p.SDR.seleZen.mkv_20210315_155427.464.jpg The.Block.Island.Sound.2020.WEB-DL.2160p.SDR.seleZen.mkv_20210315_155441.593.jpg The.Block.Island.Sound.2020.WEB-DL.2160p.SDR.seleZen.mkv_20210315_155502.449.jpg


美版资源
游客,如果您要查看本帖隐藏内容请回复

俄版资源
游客,如果您要查看本帖隐藏内容请回复



.
回复

使用道具 举报

47

主题

1337

帖子

3803

积分

4K家园VIP

Rank: 9Rank: 9Rank: 9

积分
3803
发表于 2021-3-15 10:00:29 | 显示全部楼层
好,很好,非常好!
回复 支持 反对

使用道具 举报

0

主题

3686

帖子

1万

积分

4K家园VIP

Rank: 9Rank: 9Rank: 9

积分
10133
发表于 2021-3-15 13:05:19 | 显示全部楼层
太好啦&萬分感謝版主的無私發佈分享%
回复 支持 反对

使用道具 举报

0

主题

101

帖子

1178

积分

注册会员

Rank: 2

积分
1178
发表于 2021-3-16 09:47:40 | 显示全部楼层
怎么容量这么小?
回复 支持 反对

使用道具 举报

0

主题

1185

帖子

3401

积分

4K家园VIP

Rank: 9Rank: 9Rank: 9

积分
3401
发表于 2021-3-18 19:01:10 | 显示全部楼层
前排顶起
回复 支持 反对

使用道具 举报

0

主题

1176

帖子

3540

积分

4K家园VIP

Rank: 9Rank: 9Rank: 9

积分
3540
发表于 2021-3-20 02:28:12 来自手机 | 显示全部楼层
无论是不是沙发都得回复下
回复 支持 反对

使用道具 举报

3

主题

1269

帖子

3641

积分

中级会员

Rank: 4

积分
3641
发表于 2021-3-21 12:31:08 | 显示全部楼层
学习下
回复 支持 反对

使用道具 举报

0

主题

1566

帖子

4306

积分

4K家园VIP

Rank: 9Rank: 9Rank: 9

积分
4306
发表于 2021-3-21 16:22:22 来自手机 | 显示全部楼层
没人回帖。。。我来个吧
回复 支持 反对

使用道具 举报

0

主题

1

帖子

6

积分

新手上路

Rank: 1

积分
6
发表于 2021-3-21 17:10:53 | 显示全部楼层
謝謝,試看看
回复 支持 反对

使用道具 举报

您需要登录后才可以回帖 登录 | 立即注册

本版积分规则

精彩图文
Archiver|手机版|TAG|Sitemap|新帖|专题|联系我们:邮箱: 4kjia.com@gmail.com   

4k家园   ©2019