[4K UHD 蓝光原盘] 《洛杉矶之战/世界异战(台)(俄版)》4K蓝光REMUX 版本下载

  [复制链接]

803

主题

827

帖子

1万

积分

超级版主

Rank: 8Rank: 8

积分
10704
 楼主| 发表于 2021-3-16 11:32:41 | 显示全部楼层 |阅读模式
QQ图片20210316101520_meitu_2_副本.jpg

◎译  名 洛杉矶之战/异形侵略战(港)/世界异战(台)/全球入侵:洛杉矶之战/洛城杀场
◎片  名 Battle: Los Angeles
◎年  代 2011
◎国  家 美国
◎类  别 动作/战争/科幻/灾难
◎语  言 英语
◎上映日期 2011-03-11(美国)/2011-03-18(中国大陆)
◎IMDb评分  5.8/10 from 146,831 users
◎IMDb链接  http://www.imdb.com/title/tt1217613/
◎豆瓣评分 6.0/10 from 76,408 users
◎豆瓣链接 http://movie.douban.com/subject/3041264/
◎片  长 116分钟
◎导  演 乔纳森·理贝斯曼 Jonathan Liebesman
◎主  演 艾伦·艾克哈特 Aaron Eckhart
      米歇尔·罗德里格兹 Michelle Rodriguez
      拉蒙·罗德里格兹 Ramon Rodriguez
      布丽姬·穆娜 Bridget Moynahan
      迈克尔·佩纳 Michael Peña
      威尔·罗斯海尔 Will Rothhaar
      科里·哈德里克 Cory Hardrict
      尼欧 Ne-Yo

◎简  介

  2011年夏天,无数枚陨石坠落地球,竟导致12个国家的沿海城市系数毁灭。原来陨石实则有一群神秘的外星人操纵。外星人凭借陨石着陆地球,展开残酷无情的屠杀和破坏。作为世界上的头号超级大国,美国自然也无法避免这场灾难,随着入侵者的则多,美国只有西太平洋的洛杉矶暂未沦陷。海军陆战队中士麦克·纳兹(艾伦·艾克哈特 Aaron Eckhart 饰)受命编入威廉姆·马丁内斯中尉(拉蒙·罗德里格兹 Ramon Rodriguez 饰)的小分队,准备与外星人展开殊死搏杀。
  适值此时,外星入侵者成功登陆,并杀入人口稠密的圣莫尼卡区。军方决定诱敌深入,再对敌人施以空中打击。为了营救无辜,纳兹和马丁内斯的小分队义无反顾冲了进去……

◎获奖情况

  第2届豆瓣电影鑫像奖 (2012)
  豆渣单元 最渣导演(外语)(提名) 乔纳森·里贝斯曼


Media Info
General
Complete name : 洛杉矶之战(50.84GB)Battle Los Angeles.2011.BDRemux.AI_UPSCALE_3840x2160_alq-11_SDR_Finalalang.mkv
Format : Matroska
Format version : Version 4
File size : 50.8 GiB
Duration : 1 h 56 min
Overall bit rate mode : Variable
Overall bit rate : 62.6 Mb/s
Encoded date : UTC 2021-03-02 07:03:21
Writing application : mkvmerge v54.0.0 ('F Maj Pixie') 64-bit
Writing library : libebml v1.4.2 + libmatroska v1.6.3

Video
ID : 1
Format : AVC
Format/Info : Advanced Video Codec
Format profile : Baseline@L5.1
Format settings : 1 Ref Frames
Format settings, CABAC : No
Format settings, Reference fra : 1 frame
Format settings, GOP : M=1, N=12
Codec ID : V_MPEG4/ISO/AVC
Duration : 1 h 56 min
Bit rate : 59.7 Mb/s
Width : 3 840 pixels
Height : 2 160 pixels
Display aspect ratio : 16:9
Frame rate mode : Constant
Frame rate : 23.976 (24000/1001) FPS
Color space : YUV
Chroma subsampling : 4:2:0
Bit depth : 8 bits
Scan type : Progressive
Bits/(Pixel*Frame) : 0.300
Stream size : 48.4 GiB (95%)
Writing library : x264 core 157 r2970 5493be8
Encoding settings : cabac=0 / ref=1 / deblock=0:0:0 / analyse=0:0 / me=dia / subme=0 / psy=1 / psy_rd=1.00:0.00 / mixed_ref=0 / me_range=16 / chroma_me=1 / trellis=0 / 8x8dct=0 / cqm=0 / deadzone=21,11 / fast_pskip=1 / chroma_qp_offset=0 / threads=8 / lookahead_threads=1 / sliced_threads=0 / nr=0 / decimate=1 / interlaced=0 / bluray_compat=0 / constrained_intra=0 / bframes=0 / weightp=0 / keyint=12 / keyint_min=1 / scenecut=0 / intra_refresh=0 / rc=crf / mbtree=0 / crf=15.0 / qcomp=0.60 / qpmin=0 / qpmax=69 / qpstep=4 / ip_ratio=1.40 / aq=0
Default : Yes
Forced : No

Audio #1
ID : 2
Format : AC-3
Format/Info : Audio Coding 3
Commercial name : Dolby Digital
Codec ID : A_AC3
Duration : 1 h 56 min
Bit rate mode : Constant
Bit rate : 448 kb/s
Channel(s) : 6 channels
Channel layout : L R C LFE Ls Rs
Sampling rate : 48.0 kHz
Frame rate : 31.250 FPS (1536 SPF)
Compression mode : Lossy
Stream size : 372 MiB (1%)
Language : Russian
Service kind : Complete Main
Default : Yes
Forced : Yes

Audio #2
ID : 3
Format : DTS XLL
Format/Info : Digital Theater Systems
Commercial name : DTS-HD Master Audio
Codec ID : A_DTS
Duration : 1 h 56 min
Bit rate mode : Variable
Bit rate : 2 474 kb/s
Channel(s) : 6 channels
Channel layout : C L R Ls Rs LFE
Sampling rate : 48.0 kHz
Frame rate : 93.750 FPS (512 SPF)
Bit depth : 16 bits
Compression mode : Lossless
Stream size : 2.01 GiB (4%)
Language : English
Default : No
Forced : No

Text #1
ID : 4
Format : PGS
Muxing mode : zlib
Codec ID : S_HDMV/PGS
Codec ID/Info : Picture based subtitle format used on BDs/HD-DVDs
Duration : 1 h 48 min
Bit rate : 707 b/s
Count of elements : 50
Stream size : 560 KiB (0%)
Language : Russian
Default : No
Forced : No

Text #2
ID : 5
Format : PGS
Muxing mode : zlib
Codec ID : S_HDMV/PGS
Codec ID/Info : Picture based subtitle format used on BDs/HD-DVDs
Duration : 1 h 50 min
Bit rate : 41.5 kb/s
Count of elements : 3090
Stream size : 32.9 MiB (0%)
Title : Комментарии
Language : English
Default : No
Forced : No

Text #3
ID : 6
Format : PGS
Muxing mode : zlib
Codec ID : S_HDMV/PGS
Codec ID/Info : Picture based subtitle format used on BDs/HD-DVDs
Duration : 1 h 48 min
Bit rate : 11.6 kb/s
Count of elements : 830
Stream size : 8.97 MiB (0%)
Title : Комментарии
Language : Russian
Default : No
Forced : No

Menu
00:00:00.000 : :Глава 01
00:03:00.000 : :Глава 02
00:06:00.000 : :Глава 03
00:09:00.000 : :Глава 04
00:12:00.000 : :Глава 05
00:15:00.000 : :Глава 06
00:18:00.000 : :Глава 07
00:21:00.000 : :Глава 08
00:24:00.000 : :Глава 09
00:27:00.000 : :Глава 10
00:30:00.000 : :Глава 11
00:33:00.000 : :Глава 12
00:36:00.000 : :Глава 13
00:39:00.000 : :Глава 14
00:42:00.000 : :Глава 15
00:45:00.000 : :Глава 16
00:48:00.000 : :Глава 17
00:51:00.000 : :Глава 18
00:54:00.000 : :Глава 19
00:57:00.000 : :Глава 20
01:00:00.000 : :Глава 21
01:03:00.000 : :Глава 22
01:06:00.000 : :Глава 23
01:09:00.000 : :Глава 24
01:12:00.000 : :Глава 25
01:15:00.000 : :Глава 26
01:18:00.000 : :Глава 27
01:21:00.000 : :Глава 28
01:24:00.000 : :Глава 29
01:27:00.000 : :Глава 30
01:30:00.000 : :Глава 31
01:33:00.000 : :Глава 32
01:36:00.000 : :Глава 33
01:39:00.000 : :Глава 34
01:42:00.000 : :Глава 35
01:45:00.000 : :Глава 36
01:48:00.000 : :Глава 37
01:51:00.000 : :Глава 38
01:54:00.000 : :Глава 39



首发4K蓝光REMUX俄版资源,无视迅雷下载软件,推荐使用qBittorrent等下载软件,有条件的推荐115更好的下载软件!
洛杉矶之战(50.84GB)Battle Los Angeles.2011.BDRemux.AI_UPSCALE_3840x2160_alq-11_SDR_Finalalang
游客,如果您要查看本帖隐藏内容请回复


1心,爱心.gif






回复

使用道具 举报

58

主题

1429

帖子

4121

积分

4K家园VIP

Rank: 9Rank: 9Rank: 9

积分
4121
发表于 2021-3-16 11:32:50 | 显示全部楼层
感谢分享
回复 支持 反对

使用道具 举报

0

主题

3503

帖子

9830

积分

4K家园VIP

Rank: 9Rank: 9Rank: 9

积分
9830
发表于 2021-3-16 11:39:32 | 显示全部楼层
太好啦&萬分感謝版主的無私發佈分享%
回复 支持 反对

使用道具 举报

0

主题

190

帖子

1299

积分

4K家园VIP

Rank: 9Rank: 9Rank: 9

积分
1299
QQ
发表于 2021-3-16 18:09:11 | 显示全部楼层
让 江小白 来看看帖子里藏了啥好东西~~~
回复 支持 反对

使用道具 举报

0

主题

213

帖子

1658

积分

4K家园VIP

Rank: 9Rank: 9Rank: 9

积分
1658
发表于 2021-3-17 08:52:27 | 显示全部楼层
謝版主的無私發佈分享
回复 支持 反对

使用道具 举报

2

主题

165

帖子

2627

积分

注册会员

Rank: 2

积分
2627
发表于 2021-3-17 11:40:50 | 显示全部楼层
太好啦         感谢            
回复 支持 反对

使用道具 举报

0

主题

1230

帖子

3530

积分

4K家园VIP

Rank: 9Rank: 9Rank: 9

积分
3530
发表于 2021-3-18 06:32:06 | 显示全部楼层
4K家园资源不错,前排支持
回复 支持 反对

使用道具 举报

56

主题

1397

帖子

4047

积分

4K家园VIP

Rank: 9Rank: 9Rank: 9

积分
4047
发表于 2021-3-19 12:59:44 | 显示全部楼层
我只是看看啊,不说话
回复 支持 反对

使用道具 举报

0

主题

12

帖子

389

积分

4K家园VIP

Rank: 9Rank: 9Rank: 9

积分
389
发表于 2021-3-21 15:13:07 | 显示全部楼层
感谢分享
回复

使用道具 举报

0

主题

44

帖子

241

积分

新手上路

Rank: 1

积分
241
发表于 2021-3-22 08:30:02 | 显示全部楼层
太好啦&萬分感謝版主的無私發佈分享%
回复 支持 反对

使用道具 举报

您需要登录后才可以回帖 登录 | 立即注册

本版积分规则

精彩图文
Archiver|手机版|TAG|Sitemap|新帖|专题|联系我们:邮箱: 4kjia.com@gmail.com   

4k家园   ©2019