[4K UHD 蓝光原盘] 《局内人/卧底(台)(俄版)》4K蓝光REMUX 版本下载

[复制链接]

803

主题

827

帖子

1万

积分

超级版主

Rank: 8Rank: 8

积分
10704
 楼主| 发表于 2021-3-20 12:33:15 | 显示全部楼层 |阅读模式

QQ图片20210316103543_meitu_5.jpg

◎译  名 局内人 / 内部人士 / 劫战风云 / 卧底(台) / 套中人 / 案内人(港)
◎片  名 Inside Man
◎年  代 2006
◎产  地 美国
◎类  别 剧情 / 惊悚 / 犯罪
◎语  言 英语 / 阿尔巴尼亚语
◎上映日期 2006-03-16(阿姆斯特丹首映) / 2006-03-24(美国)
◎IMDb评分 7.6/10 from 329528 users
◎IMDb链接 https://www.imdb.com/title/tt0454848
◎豆瓣评分 7.7/10 from 61103 users
◎豆瓣链接 https://movie.douban.com/subject/1441801/
◎片  长 129分钟
◎导  演 斯派克·李 Spike Lee
◎编  剧 罗赛·格维茨 Russell Gewirtz
◎主  演 丹泽尔·华盛顿 Denzel Washington
      克里夫·欧文 Clive Owen
      朱迪·福斯特 Jodie Foster
      克里斯托弗·普卢默 Christopher Plummer
      威廉·达福 Willem Dafoe
      切瓦特·埃加福特 Chiwetel Ejiofor
      金·迪莱克特 Kim Director
      肯·梁 Ken Leung
      萨曼夏·艾弗斯 Samantha Ivers



◎简  介

  华尔街一间热闹的信托银行,某日突然闯进了4名劫匪,挟持了包括银行员工在内的50名。这伙匪徒是在他们的首领道尔顿(克里夫?欧文 Clive Owen 饰)的远程指挥下行事的。道尔顿心思紧密、狡猾多疑,他让人质都穿上和匪徒一样的服饰,戴上和匪徒一样的面罩,以此来迷惑警方的狙击手和特种部队。警方一时亦无可奈何。
  奉命到场的探长弗雷泽(丹泽尔?华盛顿 Denzel Washington 饰)试图和道尔顿取得沟通,让他释放人质。然而却被道尔顿玩弄于股掌之中。此时,银行的董事阿瑟也赶到了现场,密切关注案情进展。然而他关心的不是人质安全,却是他的隐秘。
  随着时间慢慢过去,匪徒除了简单的要求外都没有提出其他要求,基辅感到内有乾坤……

◎获奖情况

  第7届美国电影学会奖(2006)
  年度佳片


General
Complete name : 局内人(60.05GB)Inside Man.2006.BD.AI_UPSCALE_3840x2160_ahq-11_SDR_Finalalang.mkv
Format : Matroska
Format version : Version 4
File size : 60.0 GiB
Duration : 2 h 8 min
Overall bit rate mode : Variable
Overall bit rate : 66.8 Mb/s
Encoded date : UTC 2021-03-16 00:49:44
Writing application : mkvmerge v55.0.0 ('Waiting For Space') 64-bit
Writing library : libebml v1.4.2 + libmatroska v1.6.4

Video
ID : 1
Format : HEVC
Format/Info : High Efficiency Video Coding
Format profile : Main@L5.2@Main
Codec ID : V_MPEGH/ISO/HEVC
Duration : 2 h 8 min
Bit rate : 61.9 Mb/s
Width : 3 840 pixels
Height : 2 160 pixels
Display aspect ratio : 16:9
Frame rate mode : Constant
Frame rate : 23.976 (24000/1001) FPS
Color space : YUV
Chroma subsampling : 4:2:0
Bit depth : 8 bits
Bits/(Pixel*Frame) : 0.311
Stream size : 55.6 GiB (93%)
Language : English
Default : Yes
Forced : No

Audio #1
ID : 2
Format : DTS
Format/Info : Digital Theater Systems
Codec ID : A_DTS
Duration : 2 h 8 min
Bit rate mode : Constant
Bit rate : 768 kb/s
Channel(s) : 6 channels
Channel layout : C L R Ls Rs LFE
Sampling rate : 48.0 kHz
Frame rate : 93.750 FPS (512 SPF)
Bit depth : 24 bits
Compression mode : Lossy
Stream size : 706 MiB (1%)
Language : Russian
Default : Yes
Forced : Yes

Audio #2
ID : 3
Format : DTS XLL
Format/Info : Digital Theater Systems
Commercial name : DTS-HD Master Audio
Codec ID : A_DTS
Duration : 2 h 8 min
Bit rate mode : Variable
Bit rate : 4 125 kb/s
Channel(s) : 6 channels
Channel layout : C L R Ls Rs LFE
Sampling rate : 48.0 kHz
Frame rate : 93.750 FPS (512 SPF)
Bit depth : 24 bits
Compression mode : Lossless
Stream size : 3.71 GiB (6%)
Language : English
Default : No
Forced : No

Text #1
ID : 4
Format : PGS
Muxing mode : zlib
Codec ID : S_HDMV/PGS
Codec ID/Info : Picture based subtitle format used on BDs/HD-DVDs
Duration : 2 h 2 min
Bit rate : 55.2 kb/s
Count of elements : 3930
Stream size : 48.2 MiB (0%)
Language : English
Default : No
Forced : No

Text #2
ID : 5
Format : PGS
Muxing mode : zlib
Codec ID : S_HDMV/PGS
Codec ID/Info : Picture based subtitle format used on BDs/HD-DVDs
Duration : 2 h 3 min
Bit rate : 57.2 kb/s
Count of elements : 4199
Stream size : 50.8 MiB (0%)
Language : Russian
Default : No
Forced : No

Text #3
ID : 6
Format : PGS
Muxing mode : zlib
Codec ID : S_HDMV/PGS
Codec ID/Info : Picture based subtitle format used on BDs/HD-DVDs
Duration : 1 h 59 min
Bit rate : 331 b/s
Count of elements : 26
Stream size : 290 KiB (0%)
Language : Russian
Default : Yes
Forced : Yes

Menu
00:00:00.000 : :Глава 01
00:03:00.000 : :Глава 02
00:06:00.000 : :Глава 03
00:09:00.000 : :Глава 04
00:12:00.000 : :Глава 05
00:15:00.000 : :Глава 06
00:18:00.000 : :Глава 07
00:21:00.000 : :Глава 08
00:24:00.000 : :Глава 09
00:27:00.000 : :Глава 10
00:30:00.000 : :Глава 11
00:33:00.000 : :Глава 12
00:36:00.000 : :Глава 13
00:39:00.000 : :Глава 14
00:42:00.000 : :Глава 15
00:45:00.000 : :Глава 16
00:48:00.000 : :Глава 17
00:51:00.000 : :Глава 18
00:54:00.000 : :Глава 19
00:57:00.000 : :Глава 20
01:00:00.000 : :Глава 21
01:03:00.000 : :Глава 22
01:06:00.000 : :Глава 23
01:09:00.000 : :Глава 24
01:12:00.000 : :Глава 25
01:15:00.000 : :Глава 26
01:18:00.000 : :Глава 27
01:21:00.000 : :Глава 28
01:24:00.000 : :Глава 29
01:27:00.000 : :Глава 30
01:30:00.000 : :Глава 31
01:33:00.000 : :Глава 32
01:36:00.000 : :Глава 33
01:39:00.000 : :Глава 34
01:42:00.000 : :Глава 35
01:45:00.000 : :Глава 36
01:48:00.000 : :Глава 37
01:51:00.000 : :Глава 38
01:54:00.000 : :Глава 39
01:57:00.000 : :Глава 40
02:00:00.000 : :Глава 41
02:03:00.000 : :Глава 42
02:06:00.000 : :Глава 43



首发4K蓝光REMUX俄版资源,无视迅雷下载软件,推荐使用qBittorrent等下载软件,有条件的推荐115更好的下载软件!
局内人(60.05GB)Inside Man.2006.BD.AI_UPSCALE_3840x2160_ahq-11_SDR_Finalalang
游客,如果您要查看本帖隐藏内容请回复



1心,爱心.gif
回复

使用道具 举报

0

主题

1527

帖子

4131

积分

4K家园VIP

Rank: 9Rank: 9Rank: 9

积分
4131
发表于 2021-3-20 12:33:57 | 显示全部楼层
4K家园资源最近貌似越来越多了
回复 支持 反对

使用道具 举报

0

主题

1431

帖子

3893

积分

4K家园VIP

Rank: 9Rank: 9Rank: 9

积分
3893
发表于 2021-3-20 12:33:57 | 显示全部楼层
楼主这资源不错,我收藏了
回复 支持 反对

使用道具 举报

0

主题

3503

帖子

9830

积分

4K家园VIP

Rank: 9Rank: 9Rank: 9

积分
9830
发表于 2021-3-20 12:44:45 | 显示全部楼层
太好啦&萬分感謝版主的無私發佈分享%
回复 支持 反对

使用道具 举报

0

主题

5

帖子

18

积分

新手上路

Rank: 1

积分
18
发表于 2021-3-20 14:04:37 | 显示全部楼层
很经典的片子,收下了。
回复 支持 反对

使用道具 举报

0

主题

1

帖子

6

积分

新手上路

Rank: 1

积分
6
发表于 2021-3-20 14:09:06 | 显示全部楼层

很经典的片子,收下了。
回复 支持 反对

使用道具 举报

0

主题

19

帖子

472

积分

新手上路

Rank: 1

积分
472
发表于 2021-3-21 00:06:47 | 显示全部楼层
很经典的片子,收下了。
回复 支持 反对

使用道具 举报

0

主题

29

帖子

408

积分

新手上路

Rank: 1

积分
408
发表于 2021-3-21 00:39:32 | 显示全部楼层
期待這部電影4K版好久了  感謝分享
回复 支持 反对

使用道具 举报

0

主题

7

帖子

27

积分

新手上路

Rank: 1

积分
27
发表于 2021-3-21 07:42:12 | 显示全部楼层
感谢楼主!
回复

使用道具 举报

0

主题

54

帖子

2292

积分

注册会员

Rank: 2

积分
2292
发表于 2021-3-21 11:08:37 | 显示全部楼层
谢谢分享!!!!!!!!
回复

使用道具 举报

您需要登录后才可以回帖 登录 | 立即注册

本版积分规则

精彩图文
Archiver|手机版|TAG|Sitemap|新帖|专题|联系我们:邮箱: 4kjia.com@gmail.com   

4k家园   ©2019