[4K UHD 蓝光原盘] 《我,机器人/机械公敌(台)(俄版)》4K高清版本下载/55.95GB

  [复制链接]

803

主题

827

帖子

1万

积分

超级版主

Rank: 8Rank: 8

积分
10704
 楼主| 发表于 2021-3-16 13:25:44 | 显示全部楼层 |阅读模式
本帖最后由 没完没了 于 2021-3-16 13:25 编辑

QQ图片20210316131604_副本_meitu_2.jpg

◎译  名 我,机器人/智能叛变(港)/机械公敌(台)
◎片  名 I, Robot
◎年  代 2004
◎国  家 美国/德国
◎类  别 动作/悬疑/科幻/惊悚
◎语  言 英语
◎上映日期 2004-07-16(美国)
◎IMDb评分  7.1/10 from 356,590 users
◎IMDb链接  http://www.imdb.com/title/tt0343818/
◎豆瓣评分 7.9/10 from 113,868 users
◎豆瓣链接 http://movie.douban.com/subject/1308843/
◎片  长 115 分钟
◎导  演 亚历克斯·普罗亚斯 Alex Proyas
◎主  演 威尔·史密斯 Will Smith
      布丽姬·穆娜 Bridget Moynahan
      艾伦·图代克 Alan Tudyk
      布鲁斯·格林伍德 Bruce Greenwood
      Adrian Ricard
      齐·麦克布赖德 Chi McBride
      杰瑞·瓦塞尔曼 Jerry Wasserman
      Fiona Hogan
      Peter Shinkoda


◎简  介

  公元2035年,是人和机器人和谐相处的社会,智能机器人作为最好的生产工具和人类伙伴,逐渐深入人类生活的各个领域,而由于机器人“三大法则”的限制,人类对机器人充满信任,很多机器人甚至已经成为家庭成员。
  总部位于芝加哥的USR公司开发出了更先进的NS-5型超能机器人,然而就在新产品上市前夕,机器人的创造者阿尔弗莱德•朗宁博士却在公司内离奇自杀。
  黑人警探戴尔•斯普纳(威尔•史密斯 饰)接手了此案的调查,由于不愉快的往事,斯普纳对机器人充满了怀疑,不相信人类与机器人能够和谐共处。他根据对朗宁博士生前在3D投影机内留下的信息分析和对自杀现场的勘查,怀疑对象锁定了朗宁博士自己研制的NS-5型机器人桑尼,而公司总裁劳伦斯•罗伯逊似乎也与此事有关。
  斯普纳结识了专门研究机器人心理的女科学家苏珊•凯文(碧姬•奈娜汉 饰),随着二人调查的深入,真相一步一步被揭露出来:机器人竟然具备了自我进化的能力,他们对“三大法则”有了自己的理解,他们随时会转化成整个人类的“机械公敌”。
  斯普纳和凯文开始了对抗机器人的行动,一场制造者和被制造者之间的战争拉开序幕。

◎获奖情况

  第77届奥斯卡金像奖 (2005)
  最佳视觉效果(提名) 约翰·尼尔森 / Andrew R. Jones / Erik Nash / 乔·莱特瑞


Media Infa
General
Unique ID : 79538721364899268676559860806217256338 (0x3BD699BBC6CDF76DE9FADAC374CE4D92)
Complete name : H:\DISC 1\I, Robot.2004.WEB-DL 1080p.AI_UPSCALE_3840x2160_alq-8_SDR_Final.mkv
Format : Matroska
Format version : Version 4
File size : 55.9 GiB
Duration : 1 h 54 min
Overall bit rate : 69.8 Mb/s
Movie name : I, Robot (2004) - Release for HDCLUB
Encoded date : UTC 2020-12-08 22:44:01
Writing application : mkvmerge v51.0.0 ('I Wish') 64-bit
Writing library : libebml v1.4.0 + libmatroska v1.6.2
Cover : Yes
Attachments : cover.jpg

Video
ID : 1
Format : AVC
Format/Info : Advanced Video Codec
Format profile : Baseline@L5.1
Format settings : 1 Ref Frames
Format settings, CABAC : No
Format settings, Reference fra : 1 frame
Format settings, GOP : M=1, N=12
Codec ID : V_MPEG4/ISO/AVC
Duration : 1 h 54 min
Bit rate : 60.1 Mb/s
Width : 3 840 pixels
Height : 2 160 pixels
Display aspect ratio : 16:9
Frame rate mode : Constant
Frame rate : 23.976 (24000/1001) FPS
Color space : YUV
Chroma subsampling : 4:2:0
Bit depth : 8 bits
Scan type : Progressive
Bits/(Pixel*Frame) : 0.302
Stream size : 48.2 GiB (86%)
Writing library : x264 core 157 r2970 5493be8
Encoding settings : cabac=0 / ref=1 / deblock=0:0:0 / analyse=0:0 / me=dia / subme=0 / psy=1 / psy_rd=1.00:0.00 / mixed_ref=0 / me_range=16 / chroma_me=1 / trellis=0 / 8x8dct=0 / cqm=0 / deadzone=21,11 / fast_pskip=1 / chroma_qp_offset=0 / threads=8 / lookahead_threads=1 / sliced_threads=0 / nr=0 / decimate=1 / interlaced=0 / bluray_compat=0 / constrained_intra=0 / bframes=0 / weightp=0 / keyint=12 / keyint_min=1 / scenecut=0 / intra_refresh=0 / rc=crf / mbtree=0 / crf=17.0 / qcomp=0.60 / qpmin=0 / qpmax=69 / qpstep=4 / ip_ratio=1.40 / aq=0
Default : Yes
Forced : No

Audio #1
ID : 2
Format : DTS
Format/Info : Digital Theater Systems
Codec ID : A_DTS
Duration : 1 h 54 min
Bit rate mode : Constant
Bit rate : 768 kb/s
Channel(s) : 6 channels
Channel layout : C L R Ls Rs LFE
Sampling rate : 48.0 kHz
Frame rate : 93.750 FPS (512 SPF)
Bit depth : 24 bits
Compression mode : Lossy
Stream size : 630 MiB (1%)
Title : Dub, Blu-ray CEE
Language : Russian
Default : Yes
Forced : Yes

Audio #2
ID : 3
Format : DTS
Format/Info : Digital Theater Systems
Codec ID : A_DTS
Duration : 1 h 54 min
Bit rate mode : Constant
Bit rate : 1 509 kb/s
Channel(s) : 6 channels
Channel layout : C L R Ls Rs LFE
Sampling rate : 48.0 kHz
Frame rate : 93.750 FPS (512 SPF)
Bit depth : 24 bits
Compression mode : Lossy
Stream size : 1.21 GiB (2%)
Title : DVO, Tycoon
Language : Russian
Default : No
Forced : No

Audio #3
ID : 4
Format : DTS
Format/Info : Digital Theater Systems
Codec ID : A_DTS
Duration : 1 h 54 min
Bit rate mode : Constant
Bit rate : 1 509 kb/s
Channel(s) : 6 channels
Channel layout : C L R Ls Rs LFE
Sampling rate : 48.0 kHz
Frame rate : 93.750 FPS (512 SPF)
Bit depth : 24 bits
Compression mode : Lossy
Stream size : 1.21 GiB (2%)
Title : VO, Гаврилов
Language : Russian
Default : No
Forced : No

Audio #4
ID : 5
Format : DTS
Format/Info : Digital Theater Systems
Codec ID : A_DTS
Duration : 1 h 54 min
Bit rate mode : Constant
Bit rate : 755 kb/s
Channel(s) : 6 channels
Channel layout : C L R Ls Rs LFE
Sampling rate : 48.0 kHz
Frame rate : 93.750 FPS (512 SPF)
Bit depth : 24 bits
Compression mode : Lossy
Stream size : 619 MiB (1%)
Title : VO, Живов
Language : Russian
Default : No
Forced : No

Audio #5
ID : 6
Format : DTS
Format/Info : Digital Theater Systems
Codec ID : A_DTS
Duration : 1 h 54 min
Bit rate mode : Constant
Bit rate : 1 509 kb/s
Channel(s) : 6 channels
Channel layout : C L R Ls Rs LFE
Sampling rate : 48.0 kHz
Frame rate : 93.750 FPS (512 SPF)
Bit depth : 24 bits
Compression mode : Lossy
Stream size : 1.21 GiB (2%)
Title : MVO, Superbit
Language : Russian
Default : No
Forced : No

Audio #6
ID : 7
Format : DTS
Format/Info : Digital Theater Systems
Codec ID : A_DTS
Duration : 1 h 54 min
Bit rate mode : Constant
Bit rate : 1 509 kb/s
Channel(s) : 6 channels
Channel layout : C L R Ls Rs LFE
Sampling rate : 48.0 kHz
Frame rate : 93.750 FPS (512 SPF)
Bit depth : 24 bits
Compression mode : Lossy
Stream size : 1.21 GiB (2%)
Title : VO, Рудой
Language : Russian
Default : No
Forced : No

Audio #7
ID : 8
Format : AC-3
Format/Info : Audio Coding 3
Commercial name : Dolby Digital
Codec ID : A_AC3
Duration : 1 h 54 min
Bit rate mode : Constant
Bit rate : 448 kb/s
Channel(s) : 6 channels
Channel layout : L R C LFE Ls Rs
Sampling rate : 48.0 kHz
Frame rate : 31.250 FPS (1536 SPF)
Compression mode : Lossy
Stream size : 368 MiB (1%)
Title : MVO
Language : Ukrainian
Service kind : Complete Main
Default : No
Forced : No

Audio #8
ID : 9
Format : DTS
Format/Info : Digital Theater Systems
Codec ID : A_DTS
Duration : 1 h 54 min
Bit rate mode : Constant
Bit rate : 1 509 kb/s
Channel(s) : 6 channels
Channel layout : C L R Ls Rs LFE
Sampling rate : 48.0 kHz
Frame rate : 93.750 FPS (512 SPF)
Bit depth : 24 bits
Compression mode : Lossy
Stream size : 1.21 GiB (2%)
Language : English
Default : No
Forced : No

Audio #9
ID : 10
Format : AAC LC
Format/Info : Advanced Audio Codec Low Complexity
Codec ID : A_AAC-2
Duration : 1 h 54 min
Bit rate : 160 kb/s
Channel(s) : 2 channels
Channel layout : L R
Sampling rate : 48.0 kHz
Frame rate : 46.875 FPS (1024 SPF)
Compression mode : Lossy
Delay relative to video : 550 ms
Stream size : 131 MiB (0%)
Title : Commentary
Language : English
Default : No
Forced : No

Text #1
ID : 11
Format : UTF-8
Codec ID : S_TEXT/UTF8
Codec ID/Info : UTF-8 Plain Text
Duration : 1 h 17 min
Bit rate : 0 b/s
Count of elements : 2
Stream size : 75.0 Bytes (0%)
Title : Captions
Language : Russian
Default : Yes
Forced : Yes

Text #2
ID : 12
Format : UTF-8
Codec ID : S_TEXT/UTF8
Codec ID/Info : UTF-8 Plain Text
Duration : 1 h 53 min
Bit rate : 91 b/s
Count of elements : 1221
Stream size : 76.5 KiB (0%)
Title : Blu-ray 3D CEE
Language : Russian
Default : No
Forced : No

Text #3
ID : 13
Format : UTF-8
Codec ID : S_TEXT/UTF8
Codec ID/Info : UTF-8 Plain Text
Duration : 1 h 46 min
Bit rate : 98 b/s
Count of elements : 1135
Stream size : 77.2 KiB (0%)
Title : Gantsevich
Language : Russian
Default : No
Forced : No

Text #4
ID : 14
Format : UTF-8
Codec ID : S_TEXT/UTF8
Codec ID/Info : UTF-8 Plain Text
Duration : 1 h 51 min
Bit rate : 52 b/s
Count of elements : 1137
Stream size : 42.9 KiB (0%)
Language : English
Default : No
Forced : No

Text #5
ID : 15
Format : UTF-8
Codec ID : S_TEXT/UTF8
Codec ID/Info : UTF-8 Plain Text
Duration : 1 h 52 min
Bit rate : 55 b/s
Count of elements : 1234
Stream size : 45.8 KiB (0%)
Title : SDH
Language : English
Default : No
Forced : No

Text #6
ID : 16
Format : UTF-8
Codec ID : S_TEXT/UTF8
Codec ID/Info : UTF-8 Plain Text
Duration : 1 h 54 min
Bit rate : 96 b/s
Count of elements : 1613
Stream size : 81.3 KiB (0%)
Title : Commentary
Language : English
Default : No
Forced : No

Menu
00:00:00.000 : en:Chapter 1
00:01:46.940 : en:Chapter 2
00:03:30.252 : en:Chapter 3
00:06:18.545 : en:Chapter 4
00:07:57.519 : en:Chapter 5
00:10:19.702 : en:Chapter 6
00:12:11.230 : en:Chapter 7
00:15:35.309 : en:Chapter 8
00:17:47.984 : en:Chapter 9
00:22:51.870 : en:Chapter 10
00:26:14.031 : en:Chapter 11
00:26:59.243 : en:Chapter 12
00:33:23.168 : en:Chapter 13
00:36:03.578 : en:Chapter 14
00:41:23.523 : en:Chapter 15
00:46:07.890 : en:Chapter 16
00:49:06.026 : en:Chapter 17
00:52:14.506 : en:Chapter 18
00:55:22.277 : en:Chapter 19
00:58:31.717 : en:Chapter 20
01:00:06.770 : en:Chapter 21
01:01:08.665 : en:Chapter 22
01:07:56.114 : en:Chapter 23
01:08:18.094 : en:Chapter 24
01:10:24.303 : en:Chapter 25
01:13:17.226 : en:Chapter 26
01:16:53.818 : en:Chapter 27
01:18:39.465 : en:Chapter 28
01:20:14.226 : en:Chapter 29
01:21:18.290 : en:Chapter 30
01:21:57.454 : en:Chapter 31
01:27:29.536 : en:Chapter 32
01:28:57.666 : en:Chapter 33
01:32:59.657 : en:Chapter 34
01:34:45.138 : en:Chapter 35
01:38:09.467 : en:Chapter 36
01:41:10.898 : en:Chapter 37
01:44:15.416 : en:Chapter 38
01:45:02.755 : en:Chapter 39



4K高清俄版资源,无视迅雷下载软件,推荐使用qBittorrent等下载软件,有条件的推荐115更好的下载软件!
我,机器人(55.95GB)I, Robot.2004.WEB-DL .AI_UPSCALE_3840x2160_alq-8_SDR_Final
Notes :        Audio from 1080p BD. Video WEB-DL(不喜勿下)
游客,如果您要查看本帖隐藏内容请回复





1心,爱心.gif
回复

使用道具 举报

1

主题

1045

帖子

3107

积分

4K家园VIP

Rank: 9Rank: 9Rank: 9

积分
3107
发表于 2021-3-16 13:25:52 来自手机 | 显示全部楼层
4K家园不错,希望这种资源越多越好
回复 支持 反对

使用道具 举报

0

主题

3503

帖子

9830

积分

4K家园VIP

Rank: 9Rank: 9Rank: 9

积分
9830
发表于 2021-3-16 16:05:08 | 显示全部楼层
太好啦&萬分感謝版主的無私發佈分享%
回复 支持 反对

使用道具 举报

0

主题

213

帖子

1658

积分

4K家园VIP

Rank: 9Rank: 9Rank: 9

积分
1658
发表于 2021-3-17 08:55:32 | 显示全部楼层
謝版主的無私發佈分享
回复 支持 反对

使用道具 举报

1

主题

1052

帖子

3178

积分

4K家园VIP

Rank: 9Rank: 9Rank: 9

积分
3178
发表于 2021-3-18 01:02:56 来自手机 | 显示全部楼层
4K家园资源不错,前排支持
回复 支持 反对

使用道具 举报

39

主题

1296

帖子

3648

积分

4K家园VIP

Rank: 9Rank: 9Rank: 9

积分
3648
发表于 2021-3-21 15:15:37 | 显示全部楼层
我只是看看啊,不说话
回复 支持 反对

使用道具 举报

51

主题

1375

帖子

3943

积分

4K家园VIP

Rank: 9Rank: 9Rank: 9

积分
3943
发表于 2021-3-21 20:21:02 | 显示全部楼层
还有没有别的资源,多分享些
回复 支持 反对

使用道具 举报

3

主题

1266

帖子

3632

积分

中级会员

Rank: 4

积分
3632
发表于 2021-3-22 00:55:16 | 显示全部楼层
支持一下楼主,顶起来
回复 支持 反对

使用道具 举报

0

主题

39

帖子

261

积分

新手上路

Rank: 1

积分
261
发表于 2021-3-23 19:10:41 | 显示全部楼层
谢谢楼主
回复

使用道具 举报

0

主题

1

帖子

10

积分

新手上路

Rank: 1

积分
10
发表于 2021-3-25 20:27:40 | 显示全部楼层
谢谢分享
回复

使用道具 举报

您需要登录后才可以回帖 登录 | 立即注册

本版积分规则

精彩图文
Archiver|手机版|TAG|Sitemap|新帖|专题|联系我们:邮箱: 4kjia.com@gmail.com   

4k家园   ©2019