[4K UHD 蓝光原盘] 《后天/明日过后(台)(俄版)》4K蓝光REMUX 版本下载

[复制链接]

803

主题

827

帖子

1万

积分

超级版主

Rank: 8Rank: 8

积分
10704
 楼主| 发表于 2021-3-17 13:05:00 | 显示全部楼层 |阅读模式
本帖最后由 没完没了 于 2021-3-17 13:06 编辑

QQ图片20210316111158_meitu_3.jpg

◎译  名 后天/明日之后(港)/明日过后(台)/末日世界/末日浩劫
◎片  名 The Day After Tomorrow
◎年  代 2004
◎产  地 美国
◎类  别 动作 / 科幻 / 冒险 / 灾难
◎语  言 英语,俄语
◎上映日期 2004-05-17(墨西哥城首映) / 2004-05-28(中国大陆/美国)
◎IMDb评分 6.4/10 from 409232 users
◎IMDb链接 https://www.imdb.com/title/tt0319262/
◎豆瓣评分 8.3/10 from 380983 users
◎豆瓣链接 https://movie.douban.com/subject/1308779/
◎片  长 124分钟
◎导  演 罗兰·艾默里奇 Roland Emmerich
◎编  剧 罗兰·艾默里奇 Roland Emmerich / 杰弗利·纳赫马诺夫 Jeffrey Nachmanoff
◎主  演 丹尼斯·奎德 Dennis Quaid
      杰克·吉伦哈尔 Jake Gyllenhaal
      埃米·罗森 Emmy Rossum
      达什·米霍克 Dash Mihok
      杰伊·桑德斯 Jay O. Sanders
      雪拉·渥德 Sela Ward
      奥斯汀·尼可斯 Austin Nichols
      阿尔杰·史密斯 Arjay Smith
      富田谭玲 Tamlyn Tomita
      萨沙·罗伊茨 Sasha Roiz
      伊安·霍姆 Ian Holm
      肯尼斯·威尔什 Kenneth Welsh
      罗宾·威尔科克 Robin Wilcock
      贾森·布利克 Jason Blicker
      肯尼思·莫斯科 Kenneth Moskow
      蒂姆·滨口 Tim Hamaguchi
      格伦·普拉默 Glenn Plummer
      艾德里安·莱斯特 Adrian Lester
      理查德·麦克米伦 Richard McMillan
      内斯特·塞拉诺 Nestor Serrano
      克里斯·布里顿 Chris Britton
      瓦拉斯塔·瓦拉纳 Vlasta Vrana
      保利娜·利特尔 Pauline Little
      艾伦·福西特 Alan Fawcett
      霍华德·比莱尔曼 Howard Bilerman
      约翰·麦克拉伦 John Maclaren
      理查德·泽曼 Richard Zeman
      佩里·金 Perry King
      弗兰克·方丹 Frank Fontaine
      米米·库兹克 Mimi Kuzyk
      维塔利·马卡罗夫 Vitali Makarov
      袁罗素 Russell Yuen
      蒂姆·巴格莱 Tim Bagley
      查克·沙曼塔 Chuck Shamata
      菲利普·贾勒特 Phillip Jarrett
      艾安娜·奥申 Ayana O'Shun
      托尼·卡拉布雷塔 Tony Calabretta
      薇安·温特 Vivian Winther
      希拉·麦卡锡 Sheila McCarthy
      汤姆·鲁尼 Tom Rooney
      艾米·斯洛安 Amy Sloan
      玛丽洛·贝吕古 Marylou Belugou
      凯伦·格莱夫 Karen Glave
      克里斯蒂安·特西尔 Christian Tessier
      乔·柯布登 Joe Cobden
      卡罗琳·基南 Caroline Keenan
      阿隆·鲁斯汀 Aaron Lustig
      萨姆·伍兹 Sam Woods
      杰克·劳弗 Jack Laufer
      吕克·莱图尔诺 Luke Letourneau
      安妮·戴-琼斯 Anne Day-Jones
      埃马纽埃尔·奥斯-德马雷 Emanuel Hoss-Desmarais
      特里·辛普森 Terry Simpson
      何塞·拉蒙·罗萨里奥 José Ramón Rosario
      Al Vandecruys
      Nassim Sharara
      J·P·马诺克斯 J.P. Manoux
      丽莎·坎宁 Lisa Canning
      Matt Adler
      Rosey Edeh
      劳伦·桑切斯 Lauren Sanchez
      Wendy L. Walsh
      Ron Darling
      特里·罗哈斯 Terry Rhoads
      雷纳·特奎拉 Leyna Nguyen
      Joey Elias
      里克·霍夫曼 Rick Hoffman
      Dilva Henry
      约翰·桑福德·穆尔 John Sanford Moore


◎简  介

  美国气候学家杰克(丹尼斯?奎德 Dennis Quaid 饰)认为,温室效应正在引发地球的大灾难,北极冰川的融化,会让地球回到冰河世纪那样的劫难。他的提醒并没有引起美国当局的重视,一切都已经太晚:飓风、冰雹、洪水、冰山融化、极度严寒,一系列的地球巨变引发了一场不可挽救的灾难。美国政府组织北纬30度的民众转移到赤道周围,场面一片混乱。更糟糕的是,杰克的儿子,正困在曼哈顿的图书馆里,靠烧书生火来维持体温。大家怎样才能逃过这场灭顶的灾祸?冰天雪地的地球何时才能回暖?

◎获奖情况

  第58届英国电影学院奖 ?(2005)
  电影奖最佳特殊视觉效果 格雷格·施特劳斯?/?雷莫·巴尔塞尔斯?/?尼尔·科博尔德?/?凯伦·E·戈勒卡斯

  第14届MTV电影奖 ?(2005)
  MTV电影奖最具突破女演员(提名) 埃米·罗森
  MTV电影奖最佳动作场面


Media Info
General
Complete name : 后天(66.67GB)Day After Tomorrow, The.2004.BDRemux.AI_UPSCALE_3840x2160_ahq-11_SDR_Finalalang.mkv
Format : Matroska
Format version : Version 4
File size : 66.7 GiB
Duration : 2 h 3 min
Overall bit rate mode : Variable
Overall bit rate : 77.2 Mb/s
Movie name : The.Day.After.Tomorrow.720p.BDRip_shartm
Encoded date : UTC 2021-03-15 22:19:00
Writing application : mkvmerge v55.0.0 ('Waiting For Space') 64-bit
Writing library : libebml v1.4.2 + libmatroska v1.6.4
Attachments : CronosPro-Bold.ttf / CronosPro-Semibold.ttf / CronosPro-SemiboldIt.ttf / TCCEB.TTF

Video
ID : 1
Format : HEVC
Format/Info : High Efficiency Video Coding
Format profile : Main@L5.2@Main
Codec ID : V_MPEGH/ISO/HEVC
Duration : 2 h 3 min
Bit rate : 62.2 Mb/s
Width : 3 840 pixels
Height : 2 160 pixels
Display aspect ratio : 16:9
Frame rate mode : Constant
Frame rate : 23.976 (24000/1001) FPS
Color space : YUV
Chroma subsampling : 4:2:0
Bit depth : 8 bits
Bits/(Pixel*Frame) : 0.313
Stream size : 53.7 GiB (81%)
Language : English
Default : Yes
Forced : No

Audio #1
ID : 2
Format : DTS
Format/Info : Digital Theater Systems
Codec ID : A_DTS
Duration : 2 h 3 min
Bit rate mode : Constant
Bit rate : 768 kb/s
Channel(s) : 6 channels
Channel layout : C L R Ls Rs LFE
Sampling rate : 48.0 kHz
Frame rate : 93.750 FPS (512 SPF)
Bit depth : 24 bits
Compression mode : Lossy
Stream size : 679 MiB (1%)
Title : 1. DUB (Blu-ray), DTS 5.1, 768 kbps
Language : Russian
Default : Yes
Forced : Yes

Audio #2
ID : 3
Format : AC-3
Format/Info : Audio Coding 3
Commercial name : Dolby Digital
Codec ID : A_AC3
Duration : 2 h 3 min
Bit rate mode : Constant
Bit rate : 448 kb/s
Channel(s) : 6 channels
Channel layout : L R C LFE Ls Rs
Sampling rate : 48.0 kHz
Frame rate : 31.250 FPS (1536 SPF)
Compression mode : Lossy
Stream size : 396 MiB (1%)
Title : 3. DVO (Tycoon), AC3 5.1, 448.00 kbps
Language : Russian
Service kind : Complete Main
Default : No
Forced : No

Audio #3
ID : 4
Format : DTS XLL
Format/Info : Digital Theater Systems
Commercial name : DTS-HD Master Audio
Codec ID : A_DTS
Duration : 2 h 3 min
Bit rate mode : Variable
Bit rate : 4 197 kb/s
Channel(s) : 6 channels
Channel layout : C L R Ls Rs LFE
Sampling rate : 48.0 kHz
Frame rate : 93.750 FPS (512 SPF)
Bit depth : 24 bits
Compression mode : Lossless
Stream size : 3.63 GiB (5%)
Title : 4. DVO (Гланц и И.Королева), DTS-HD MA 5.1, 4198.00 kbps
Language : Russian
Default : No
Forced : No

Audio #4
ID : 5
Format : DTS XLL
Format/Info : Digital Theater Systems
Commercial name : DTS-HD Master Audio
Codec ID : A_DTS
Duration : 2 h 3 min
Bit rate mode : Variable
Bit rate : 4 207 kb/s
Channel(s) : 6 channels
Channel layout : C L R Ls Rs LFE
Sampling rate : 48.0 kHz
Frame rate : 93.750 FPS (512 SPF)
Bit depth : 24 bits
Compression mode : Lossless
Stream size : 3.63 GiB (5%)
Title : 5. AVO (Рудой), DTS-HD MA 5.1, 4208.00 kbps
Language : Russian
Default : No
Forced : No

Audio #5
ID : 6
Format : DTS
Format/Info : Digital Theater Systems
Codec ID : A_DTS
Duration : 2 h 3 min
Bit rate mode : Constant
Bit rate : 755 kb/s
Channel(s) : 6 channels
Channel layout : C L R Ls Rs LFE
Sampling rate : 48.0 kHz
Frame rate : 93.750 FPS (512 SPF)
Bit depth : 24 bits
Compression mode : Lossy
Stream size : 667 MiB (1%)
Title : 6. AVO (Королев), DTS 5.1, 768 kbps
Language : Russian
Default : No
Forced : No

Audio #6
ID : 7
Format : DTS XLL
Format/Info : Digital Theater Systems
Commercial name : DTS-HD Master Audio
Codec ID : A_DTS
Duration : 2 h 3 min
Bit rate mode : Variable
Bit rate : 4 136 kb/s
Channel(s) : 6 channels
Channel layout : C L R Ls Rs LFE
Sampling rate : 48.0 kHz
Frame rate : 93.750 FPS (512 SPF)
Bit depth : 24 bits
Compression mode : Lossless
Stream size : 3.57 GiB (5%)
Title : 7. Original, DTS-HD MA 5.1, 4136 kbps
Language : English
Default : No
Forced : No

Audio #7
ID : 8
Format : AC-3
Format/Info : Audio Coding 3
Commercial name : Dolby Digital
Codec ID : A_AC3
Duration : 2 h 3 min
Bit rate mode : Constant
Bit rate : 224 kb/s
Channel(s) : 2 channels
Channel layout : L R
Sampling rate : 48.0 kHz
Frame rate : 31.250 FPS (1536 SPF)
Compression mode : Lossy
Stream size : 198 MiB (0%)
Title : 8. Commentary 1 (От режиссера Р. Эммериха и продюсера М. Гордона)
Language : English
Service kind : Complete Main
Default : No
Forced : No

Audio #8
ID : 9
Format : AC-3
Format/Info : Audio Coding 3
Commercial name : Dolby Digital
Codec ID : A_AC3
Duration : 2 h 3 min
Bit rate mode : Constant
Bit rate : 224 kb/s
Channel(s) : 2 channels
Channel layout : L R
Sampling rate : 48.0 kHz
Frame rate : 31.250 FPS (1536 SPF)
Compression mode : Lossy
Stream size : 198 MiB (0%)
Title : 9. Commentary 2 (От соавтора сценария Д. Нахманоффа, оператора У. Стайгера, монтажера Д. Бреннера и художника Б. Чюсида)
Language : English
Service kind : Complete Main
Default : No
Forced : No

Text #1
ID : 10
Format : UTF-8
Codec ID : S_TEXT/UTF8
Codec ID/Info : UTF-8 Plain Text
Duration : 1 h 51 min
Bit rate : 97 b/s
Count of elements : 1161
Stream size : 80.3 KiB (0%)
Language : Russian
Default : No
Forced : No

Text #2
ID : 11
Format : ASS
Codec ID : S_TEXT/ASS
Codec ID/Info : Advanced Sub Station Alpha
Duration : 1 h 51 min
Bit rate : 94 b/s
Count of elements : 1158
Compression mode : Lossless
Stream size : 77.5 KiB (0%)
Language : English
Default : No
Forced : No

Menu
00:00:00.000 : en:Chapter 1
00:03:07.562 : en:Chapter 2
00:06:15.792 : en:Chapter 3
00:09:17.181 : en:Chapter 4
00:12:04.432 : en:Chapter 5
00:15:42.733 : en:Chapter 6
00:18:37.699 : en:Chapter 7
00:20:45.661 : en:Chapter 8
00:22:41.401 : en:Chapter 9
00:24:13.326 : en:Chapter 10
00:31:22.922 : en:Chapter 11
00:38:26.303 : en:Chapter 12
00:42:14.948 : en:Chapter 13
00:48:08.010 : en:Chapter 14
00:51:15.655 : en:Chapter 15
00:54:12.415 : en:Chapter 16
01:03:00.151 : en:Chapter 17
01:06:22.353 : en:Chapter 18
01:08:09.835 : en:Chapter 19
01:11:26.615 : en:Chapter 20
01:13:40.248 : en:Chapter 21
01:17:46.995 : en:Chapter 22
01:20:52.430 : en:Chapter 23
01:24:08.001 : en:Chapter 24
01:27:57.647 : en:Chapter 25
01:29:35.870 : en:Chapter 26
01:32:18.616 : en:Chapter 27
01:38:42.958 : en:Chapter 28
01:41:34.463 : en:Chapter 29
01:46:57.911 : en:Chapter 30
01:50:41.676 : en:Chapter 31
01:55:38.598 : en:Chapter 32
02:03:39.411 : en:Chapter 33




首发4K蓝光REMUX俄版资源,无视迅雷下载软件,推荐使用qBittorrent等下载软件,有条件的推荐115更好的下载软件!
后天(66.67GB)Day After Tomorrow, The.2004.BDRemux.AI_UPSCALE_3840x2160_ahq-11_SDR_Finalalang
游客,如果您要查看本帖隐藏内容请回复


1心,爱心.gif
回复

使用道具 举报

1

主题

995

帖子

3003

积分

4K家园VIP

Rank: 9Rank: 9Rank: 9

积分
3003
发表于 2021-3-17 13:05:06 | 显示全部楼层
这个资源我记得是一套的,楼主还有没有
回复 支持 反对

使用道具 举报

0

主题

3503

帖子

9830

积分

4K家园VIP

Rank: 9Rank: 9Rank: 9

积分
9830
发表于 2021-3-17 13:35:25 | 显示全部楼层
太好啦&萬分感謝版主的無私發佈分享%
回复 支持 反对

使用道具 举报

0

主题

3

帖子

12

积分

新手上路

Rank: 1

积分
12
发表于 2021-3-17 14:20:38 | 显示全部楼层
感谢分享,
回复

使用道具 举报

0

主题

3

帖子

12

积分

新手上路

Rank: 1

积分
12
发表于 2021-3-17 14:20:54 | 显示全部楼层
感谢分享找了好久
回复 支持 反对

使用道具 举报

0

主题

127

帖子

806

积分

4K家园VIP

Rank: 9Rank: 9Rank: 9

积分
806
QQ
发表于 2021-3-17 15:25:08 | 显示全部楼层

太好啦&萬分感謝版主的無私發佈分享%
回复 支持 反对

使用道具 举报

0

主题

6

帖子

51

积分

4K家园VIP

Rank: 9Rank: 9Rank: 9

积分
51
发表于 2021-3-17 16:12:14 | 显示全部楼层

感谢分享找了好久
回复 支持 反对

使用道具 举报

0

主题

54

帖子

2292

积分

注册会员

Rank: 2

积分
2292
发表于 2021-3-17 16:19:40 | 显示全部楼层
谢谢分享
回复

使用道具 举报

0

主题

10

帖子

325

积分

4K家园VIP

Rank: 9Rank: 9Rank: 9

积分
325
发表于 2021-3-17 20:12:05 | 显示全部楼层
非常感谢楼主
回复 支持 反对

使用道具 举报

2

主题

1014

帖子

3008

积分

4K家园VIP

Rank: 9Rank: 9Rank: 9

积分
3008
发表于 2021-3-18 09:48:17 | 显示全部楼层
我只是看看啊,不说话
回复 支持 反对

使用道具 举报

您需要登录后才可以回帖 登录 | 立即注册

本版积分规则

精彩图文
Archiver|手机版|TAG|Sitemap|新帖|专题|联系我们:邮箱: 4kjia.com@gmail.com   

4k家园   ©2019