[4K UHD 蓝光原盘] 《地心引力/引力边缘(港)(俄版)》4K蓝光REMUX 版本下载

[复制链接]

803

主题

827

帖子

1万

积分

超级版主

Rank: 8Rank: 8

积分
10707
 楼主| 发表于 2021-3-22 10:54:06 | 显示全部楼层 |阅读模式
QQ图片20210316120846_副本.png

◎译  名 地心引力/引力边缘(港)/地球引力/重力/Gravedad
◎片  名 Gravity
◎年  代 2013
◎产  地 美国/英国
◎类  别 科幻/惊悚/灾难
◎语  言 英语/格陵兰语
◎上映日期 2013-08-28(威尼斯电影节)/2013-10-04(美国)/2013-11-19(中国大陆)
◎IMDb评分  7.7/10 from 760,823 users
◎IMDb链接  https://www.imdb.com/title/tt1454468/
◎豆瓣评分 7.9/10 from 372199 users
◎豆瓣链接 https://douban.com/subject/3793783/
◎片  长 91分钟
◎导  演 阿方索·卡隆 Alfonso Cuarón
◎编  剧 阿方索·卡隆 Alfonso Cuarón / 霍纳斯·卡隆 Jonás Cuarón
◎主  演 桑德拉·布洛克 Sandra Bullock
       乔治·克鲁尼 George Clooney
       艾德·哈里斯 Ed Harris
       奥托·伊格内修森 Orto Ignatiussen
       法尔杜特·夏尔马 Phaldut Sharma
       艾米·沃伦 Amy Warren
       巴舍尔·萨维奇 Basher Savage


◎简  介


  深邃浩瀚的外层空间,蔚蓝的地球与深不见底、漆黑一片的宇宙形成鲜明对比。一台隶属美国的空间站,数名宇航人员正进行太空漫步,对所属卫星做着例行检查。初上太空的瑞安·斯通博士(桑德拉·布洛克 Sandra Bullock 饰)在经验丰富的宇航员麦特·科沃斯基(乔治·克鲁尼 George Clooney 饰)的协助下,有条不紊地检查每一个部件。此次是科沃斯基退休前的最后一次飞行,他幽默风趣地活跃着团队的氛围。就在此时,休士顿总部传来骇人消息,不久前行将废弃俄罗斯卫星被导弹击毁,碎片以超过子弹的速度在地球轨道上散开,并意外击中其他卫星,引起连锁反应制造了新的碎片。
  瑞安一行遭到碎片重创,有的同伴不幸身亡,而她和科沃斯基失去控制坠入宇宙深处。幸存的二人不得不彼此信赖,拼尽全力朝向故土前进……


◎获奖情况

  第86届奥斯卡金像奖  (2014)
  最佳影片(提名) 阿方索·卡隆 / 大卫·海曼
  最佳导演 阿方索·卡隆
  最佳女主角(提名) 桑德拉·布洛克
  最佳摄影 艾曼努尔·卢贝兹基
  最佳剪辑 马克·桑格 / 阿方索·卡隆
  最佳视觉效果 蒂莫西·韦伯尔 / 克里斯·劳伦斯 / 大卫·谢克 / 尼尔·科博尔德
  最佳混音 克里斯·蒙罗 / 斯吉普·里埃弗塞 / 克里斯托弗·本斯特德 / 尼夫·阿迪里
  最佳音效剪辑 格伦·弗里曼特
  最佳艺术指导(提名) 安迪·尼克尔森 / 罗茜·古德温 / 乔安妮·伍拉尔德
  最佳原创配乐 史蒂文·普莱斯

  第70届威尼斯电影节  (2013)
  未来数字电影奖 阿方索·卡隆

  第71届金球奖  (2014)
  电影类最佳剧情片(提名)
  电影类最佳导演 阿方索·卡隆
  电影类剧情片最佳女主角(提名) 桑德拉·布洛克
  电影类最佳原创配乐(提名)

  第37届日本电影学院奖  (2014)
  最佳外语片(提名)

  第39届法国凯撒电影奖  (2014)
  最佳外语片(提名) 阿方索·卡隆

  第23届MTV电影奖  (2014)
  MTV电影奖最佳女演员(提名) 桑德拉·布洛克

  第66届美国导演工会奖  (2014)
  最佳电影导演 阿方索·卡隆

  第20届美国演员工会奖  (2014)
  电影奖最佳女主角(提名) 桑德拉·布洛克

  第25届美国制片人工会奖  (2014)
  最佳电影制片人奖 阿方索·卡隆 / 大卫·海曼

  第28届美国摄影协会奖  (2014)
  电影长片最佳摄影 艾曼努尔·卢贝兹基

  第64届美国剪辑工会奖  (2014)
  剧情片最佳剪辑(提名) 马克·桑格 / 阿方索·卡隆

  第61届美国音效剪辑协会奖  (2014)
  金卷轴奖最佳电影音效剪辑 雨果·亚当斯 / 尼古拉斯·贝克尔 / 尼夫·阿迪里 / 本·巴克尔 / 格伦·弗里曼特
  金卷轴奖最佳电影对白剪辑(提名) 吉利安·多德尔斯 / 格伦·弗里曼特
  金卷轴奖最佳配乐剪辑(提名) 克里斯托弗·本斯特德

  第12届美国视觉效果协会奖  (2014)
  最佳特效电影视觉效果 尼基·佩尼 / 蒂莫西·韦伯尔 / 克里斯·劳伦斯
  最佳真人电影CG动画角色(提名) 迈克尔·布鲁奈特 / 大卫·谢克
  最佳真人电影CG背景 凯尔·麦克库洛奇
  最佳真人电影CG背景(提名) 乔纳森·福克纳尔
  最佳电影虚拟摄影 艾曼努尔·卢贝兹基 / 蒂莫西·韦伯尔
  最佳电影模型 安迪·尼克尔森 / 克里斯·劳伦斯
  最佳真人电影模拟动画效果
  最佳电影视觉效果合成 安东尼·史密斯 / 阿德里安·梅特泽拉尔

  第50届美国声音效果协会奖  (2014)
  真人电影最佳音效 克里斯·蒙罗 / 斯吉普·里埃弗塞 / 克里斯托弗·本斯特德 / 加里斯·卡森斯 / 尼夫·阿迪里

  第85届美国国家评论协会奖  (2014)
  电影制作创意革新奖
  年度佳片  

  第19届美国评论家选择电影奖  (2014)
  最佳影片(提名)
  最佳导演 阿方索·卡隆
  最佳女主角(提名) 桑德拉·布洛克
  动作片最佳女主角 桑德拉·布洛克
  最佳科幻/恐怖片
  最佳摄影 艾曼努尔·卢贝兹基
  最佳剪辑 马克·桑格 / 阿方索·卡隆
  最佳配乐 史蒂文·普莱斯
  最佳美术指导(提名) 安迪·尼克尔森 / 罗茜·古德温
  最佳视觉效果

  第14届美国电影学会奖  (2013)
  年度佳片

  第18届金卫星奖  (2014)
  电影部门最佳剧情片(提名)
  电影部门最佳导演(提名) 阿方索·卡隆
  电影部门剧情片最佳女主角(提名) 桑德拉·布洛克
  电影部门最佳原创配乐 史蒂文·普莱斯
  电影部门最佳摄影(提名) 艾曼努尔·卢贝兹基
  电影部门最佳视觉效果 蒂莫西·韦伯尔 / 克里斯·劳伦斯 / 大卫·谢克 / 尼尔·科博尔德
  电影部门最佳剪辑(提名) 马克·桑格 / 阿方索·卡隆
  电影部门最佳音效 斯吉普·里埃弗塞 / 尼夫·阿迪里 / 格伦·弗里曼特

  第17届好莱坞电影奖  (2013)
  年度女主角 桑德拉·布洛克

  第48届美国国家影评人协会奖  (2014)
  最佳导演(提名) 阿方索·卡隆
  最佳摄影(提名) 艾曼努尔·卢贝兹基

  第12届华盛顿影评人协会奖  (2013)
  最佳影片(提名)
  最佳导演 阿方索·卡隆
  最佳女主角(提名) 桑德拉·布洛克
  最佳摄影
  最佳剪辑
  最佳原创配乐(提名)
  最佳艺术指导(提名)

  第34届伦敦影评人协会奖  (2014)
  年度电影(提名)

  年度导演 阿方索·卡隆
  年度女主角(提名) 桑德拉·布洛克
  技术成就奖 蒂莫西·韦伯尔  

  第34届波士顿影评人协会奖  (2013)
  最佳摄影 艾曼努尔·卢贝兹基

  第39届洛杉矶影评人协会奖  (2013)
  最佳影片 阿方索·卡隆
  最佳导演 阿方索·卡隆
  最佳摄影 艾曼努尔·卢贝兹基
  最佳剪辑 马克·桑格 / 阿方索·卡隆  

  第18届圣地亚哥影评人协会奖  (2013)
  最佳影片(提名)
  最佳导演 阿方索·卡隆
  最佳女主角(提名) 桑德拉·布洛克
  最佳摄影(提名) 艾曼努尔·卢贝兹基
  最佳剪辑(提名) 马克·桑格 / 阿方索·卡隆
  最佳配乐(提名) 史蒂文·普莱斯
  最佳艺术指导(提名) 安迪·尼克尔森

  第26届芝加哥影评人协会奖  (2013)
  最佳摄影 艾曼努尔·卢贝兹基
  最佳剪辑 马克·桑格 / 阿方索·卡隆
  最佳艺术指导 安迪·尼克尔森 / 马克·斯克鲁顿

  第12届旧金山影评人协会奖  (2013)
  最佳导演 阿方索·卡隆
  最佳摄影 艾曼努尔·卢贝兹基
  最佳艺术指导 安迪·尼克尔森
  最佳剪辑 马克·桑格 / 阿方索·卡隆 

  第14届温哥华影评人协会奖  (2014)
  最佳影片(提名)
  最佳导演(提名) 阿方索·卡隆
  最佳女主角(提名) 桑德拉·布洛克

  第47届堪萨斯影评人协会奖  (2013)
  最佳导演 阿方索·卡隆
  最佳女主角 桑德拉·布洛克

  第13届凤凰城影评人协会奖  (2013)
  最佳导演 阿方索·卡隆
  最佳女主角(提名) 桑德拉·布洛克
  最佳原创剧本(提名) 阿方索·卡隆 / 霍纳斯·卡隆
  最佳摄影 艾曼努尔·卢贝兹基
  最佳剪辑 马克·桑格 / 阿方索·卡隆
  最佳艺术指导 安迪·尼克尔森
  最佳视觉效果
  十佳影片  

  第7届底特律影评人协会奖  (2013)
  最佳导演 阿方索·卡隆

  第22届东南影评人协会奖  (2013)
  最佳导演(提名) 阿方索·卡隆
  最佳摄影 艾曼努尔·卢贝兹基
  十大佳片

  第17届美国在线影评人协会奖  (2013)
  最佳影片(提名)
  最佳导演 阿方索·卡隆
  最佳剪辑
  最佳摄影
  最佳视觉效果
  最佳音效设计

  第16届美国青少年选择奖  (2014)
  最佳剧情片女演员(提名) 桑德拉·布洛克

  第4届豆瓣电影鑫像奖  (2014)
  鑫豆单元最佳影片(外语)(提名)
  鑫豆单元最佳导演(外语) 阿方索·卡隆
  鑫豆单元最佳女演员(外语)(提名) 桑德拉·布洛克
  鑫豆单元最佳科幻/动作片
  鑫豆单元最佳配乐(提名)


Media Info
General
Complete name : 地心引力(47.67GB)Gravity.2013.BDREMUX.AI_UPSCAL_3840x2160_ahq-11_SDR_Finalalang.mkv
Format : Matroska
Format version : Version 4
File size : 47.7 GiB
Duration : 1 h 30 min
Overall bit rate mode : Variable
Overall bit rate : 75.0 Mb/s
Encoded date : UTC 2021-03-09 03:55:21
Writing application : mkvmerge v55.0.0 ('Waiting For Space') 64-bit
Writing library : libebml v1.4.2 + libmatroska v1.6.4

Video
ID : 1
Format : AVC
Format/Info : Advanced Video Codec
Format profile : Baseline@L5.1
Format settings : 1 Ref Frames
Format settings, CABAC : No
Format settings, Reference fra : 1 frame
Format settings, GOP : M=1, N=12
Codec ID : V_MPEG4/ISO/AVC
Duration : 1 h 30 min
Bit rate : 72.2 Mb/s
Width : 3 840 pixels
Height : 2 160 pixels
Display aspect ratio : 16:9
Frame rate mode : Constant
Frame rate : 23.976 (24000/1001) FPS
Color space : YUV
Chroma subsampling : 4:2:0
Bit depth : 8 bits
Scan type : Progressive
Bits/(Pixel*Frame) : 0.363
Stream size : 45.9 GiB (96%)
Writing library : x264 core 157 r2970 5493be8
Encoding settings : cabac=0 / ref=1 / deblock=0:0:0 / analyse=0:0 / me=dia / subme=0 / psy=1 / psy_rd=1.00:0.00 / mixed_ref=0 / me_range=16 / chroma_me=1 / trellis=0 / 8x8dct=0 / cqm=0 / deadzone=21,11 / fast_pskip=1 / chroma_qp_offset=0 / threads=8 / lookahead_threads=1 / sliced_threads=0 / nr=0 / decimate=1 / interlaced=0 / bluray_compat=0 / constrained_intra=0 / bframes=0 / weightp=0 / keyint=12 / keyint_min=1 / scenecut=0 / intra_refresh=0 / rc=crf / mbtree=0 / crf=15.0 / qcomp=0.60 / qpmin=0 / qpmax=69 / qpstep=4 / ip_ratio=1.40 / aq=0
Default : Yes
Forced : No

Audio #1
ID : 2
Format : AC-3
Format/Info : Audio Coding 3
Commercial name : Dolby Digital
Codec ID : A_AC3
Duration : 1 h 30 min
Bit rate mode : Constant
Bit rate : 448 kb/s
Channel(s) : 6 channels
Channel layout : L R C LFE Ls Rs
Sampling rate : 48.0 kHz
Frame rate : 31.250 FPS (1536 SPF)
Compression mode : Lossy
Stream size : 292 MiB (1%)
Title : Дубляж
Language : Russian
Service kind : Complete Main
Default : Yes
Forced : Yes

Audio #2
ID : 3
Format : DTS XLL
Format/Info : Digital Theater Systems
Commercial name : DTS-HD Master Audio
Codec ID : A_DTS
Duration : 1 h 30 min
Bit rate mode : Variable
Bit rate : 2 369 kb/s
Channel(s) : 6 channels
Channel layout : C L R Ls Rs LFE
Sampling rate : 48.0 kHz
Frame rate : 93.750 FPS (512 SPF)
Bit depth : 16 bits
Compression mode : Lossless
Stream size : 1.51 GiB (3%)
Language : English
Default : No
Forced : No

Text #1
ID : 4
Format : PGS
Muxing mode : zlib
Codec ID : S_HDMV/PGS
Codec ID/Info : Picture based subtitle format used on BDs/HD-DVDs
Duration : 1 h 29 min
Bit rate : 28.6 kb/s
Count of elements : 1999
Stream size : 18.4 MiB (0%)
Language : English
Default : No
Forced : No

Text #2
ID : 5
Format : PGS
Muxing mode : zlib
Codec ID : S_HDMV/PGS
Codec ID/Info : Picture based subtitle format used on BDs/HD-DVDs
Duration : 1 h 30 min
Bit rate : 20.0 kb/s
Count of elements : 1740
Stream size : 13.0 MiB (0%)
Language : Russian
Default : No
Forced : No

Text #3
ID : 6
Format : PGS
Muxing mode : zlib
Codec ID : S_HDMV/PGS
Codec ID/Info : Picture based subtitle format used on BDs/HD-DVDs
Duration : 1 h 30 min
Bit rate : 259 b/s
Count of elements : 26
Stream size : 173 KiB (0%)
Language : Russian
Default : Yes
Forced : Yes

Menu
00:00:00.000 : :Глава 01
00:03:00.000 : :Глава 02
00:06:00.000 : :Глава 03
00:09:00.000 : :Глава 04
00:12:00.000 : :Глава 05
00:15:00.000 : :Глава 06
00:18:00.000 : :Глава 07
00:21:00.000 : :Глава 08
00:24:00.000 : :Глава 09
00:27:00.000 : :Глава 10
00:30:00.000 : :Глава 11
00:33:00.000 : :Глава 12
00:36:00.000 : :Глава 13
00:39:00.000 : :Глава 14
00:42:00.000 : :Глава 15
00:45:00.000 : :Глава 16
00:48:00.000 : :Глава 17
00:51:00.000 : :Глава 18
00:54:00.000 : :Глава 19
00:57:00.000 : :Глава 20
01:00:00.000 : :Глава 21
01:03:00.000 : :Глава 22
01:06:00.000 : :Глава 23
01:09:00.000 : :Глава 24
01:12:00.000 : :Глава 25
01:15:00.000 : :Глава 26
01:18:00.000 : :Глава 27
01:21:00.000 : :Глава 28
01:24:00.000 : :Глава 29
01:27:00.000 : :Глава 30
01:30:00.000 : :Глава 31


首发4K蓝光REMUX俄版资源,无视迅雷下载软件,推荐使用qBittorrent等下载软件,有条件的推荐115更好的下载软件!
地心引力(47.67GB)Gravity.2013.BDREMUX.AI_UPSCAL_3840x2160_ahq-11_SDR_Finalalang
游客,如果您要查看本帖隐藏内容请回复

1心,爱心.gif
回复

使用道具 举报

0

主题

1527

帖子

4131

积分

4K家园VIP

Rank: 9Rank: 9Rank: 9

积分
4131
发表于 2021-3-22 10:54:17 | 显示全部楼层
楼猪辛苦了,支持一下分享好资源
回复 支持 反对

使用道具 举报

0

主题

3512

帖子

9852

积分

4K家园VIP

Rank: 9Rank: 9Rank: 9

积分
9852
发表于 2021-3-22 11:25:41 | 显示全部楼层
太好啦&萬分感謝版主的無私發佈分享%
回复 支持 反对

使用道具 举报

2

主题

26

帖子

396

积分

4K家园VIP

Rank: 9Rank: 9Rank: 9

积分
396
发表于 2021-3-22 13:53:58 | 显示全部楼层
感谢楼主一直提供片子要是有时间也给个中英双语字幕在下面就更好了谢谢了
回复 支持 反对

使用道具 举报

0

主题

5

帖子

18

积分

新手上路

Rank: 1

积分
18
发表于 2021-3-22 14:13:11 来自手机 | 显示全部楼层
看下资源如何
回复 支持 反对

使用道具 举报

0

主题

44

帖子

241

积分

新手上路

Rank: 1

积分
241
发表于 2021-3-24 08:27:23 | 显示全部楼层
楼猪辛苦了,支持一下分享好资源
回复 支持 反对

使用道具 举报

1

主题

10

帖子

63

积分

新手上路

Rank: 1

积分
63
发表于 2021-3-24 21:40:21 | 显示全部楼层
好东西啊
回复

使用道具 举报

0

主题

192

帖子

1305

积分

4K家园VIP

Rank: 9Rank: 9Rank: 9

积分
1305
QQ
发表于 2021-3-26 09:40:30 | 显示全部楼层
楼主辛苦了,谢谢楼主,感谢楼主分享,楼主好人一生平安!!!
回复 支持 反对

使用道具 举报

3

主题

1150

帖子

3472

积分

4K家园VIP

Rank: 9Rank: 9Rank: 9

积分
3472
发表于 2021-3-26 21:41:30 | 显示全部楼层
楼主这资源不错,我收藏了
回复 支持 反对

使用道具 举报

40

主题

1366

帖子

3860

积分

4K家园VIP

Rank: 9Rank: 9Rank: 9

积分
3860
发表于 2021-3-27 10:58:25 来自手机 | 显示全部楼层
这个资源我记得是一套的,楼主还有没有
回复 支持 反对

使用道具 举报

您需要登录后才可以回帖 登录 | 立即注册

本版积分规则

精彩图文
Archiver|手机版|TAG|Sitemap|新帖|专题|联系我们:邮箱: 4kjia.com@gmail.com   

4k家园   ©2019