[4K电影] 《特种空勤团:红色通缉令》4K高清下载/大小13.52GB

[复制链接]

426

主题

441

帖子

4236

积分

4K家园VIP

Rank: 9Rank: 9Rank: 9

积分
4236
 楼主| 发表于 2021-3-18 10:16:37 | 显示全部楼层 |阅读模式
p2633744329.webp_副本.jpg

◎译  名 特种空勤团:红色通缉令/SAS:红色通知
◎片  名 SAS: Red Notice
◎年  代 2021
◎产  地 英国/匈牙利/荷兰/瑞士
◎类  别 动作/犯罪
◎语  言 英语
◎上映日期 2021-03-12(英国)
◎IMDb评分  4.5/10 from 1,705 users
◎IMDb链接  https://www.imdb.com/title/tt4479380/
◎豆瓣评分 5.6/10 from 105 users
◎豆瓣链接 https://douban.com/subject/26322998/
◎导  演 马格努斯·马滕斯 Magnus Martens / 尼克·拉夫 Nick Love
◎编  剧 Andy McNab
◎主  演 萨姆·修汉 Sam Heughan
       鲁比·罗丝 Ruby Rose
       安迪·瑟金斯 Andy Serkis
       汉娜·乔恩-卡门 Hannah John-Kamen
       汤姆·霍珀 Tom Hopper
       诺埃尔·克拉克 Noel Clarke
       汤姆·威尔金森 Tom Wilkinson
       欧文·约曼 Owain Yeoman
       雷·潘莎基 Ray Panthaki
       安妮·雷德 Anne Reid
       陆思敬 Jing Lusi
       萨拉·温特 Sarah Winter
       理查德·麦凯布 Richard McCabe
       道格拉斯·瑞斯 Douglas Reith
       戴兰·史密斯 Dylan Smith
       卡罗琳·博尔顿 Caroline Boulton
       阿提拉·阿帕 Attila Árpa
       蒂姆·费林汉姆 Tim Fellingham
       泰·赫尔利 Ty Hurley
       马丁·安格鲍尔 Martin Angerbauer
       罗德里克·希尔 Roderick Hill
       巴尔·瓦斯维尔斯 Balázs Veres


◎简  介


  一支由拉兹洛·安东诺夫领导的训练有素的罪犯组成的小部队在英吉利海峡深处劫持了“欧洲之星”。



Video
ID : 1
Format : HEVC
Format/Info : High Efficiency Video Coding
Format profile : Main@L5.1@Main
Codec ID : V_MPEGH/ISO/HEVC
Duration : 2 h 3 min
Bit rate : 15.0 Mb/s
Width : 3 840 pixels
Height : 2 160 pixels
Display aspect ratio : 16:9
Frame rate mode : Constant
Frame rate : 23.976 (24000/1001) FPS
Color space : YUV
Chroma subsampling : 4:2:0
Bit depth : 8 bits
Bits/(Pixel*Frame) : 0.075
Stream size : 13.0 GiB (96%)
Default : Yes
Forced : No
Color range : Limited
Color primaries : BT.709
Transfer characteristics : BT.709
Matrix coefficients : BT.709

Audio
ID : 2
Format : E-AC-3
Format/Info : Enhanced AC-3
Commercial name : Dolby Digital Plus
Codec ID : A_EAC3
Duration : 2 h 3 min
Bit rate mode : Constant
Bit rate : 640 kb/s
Channel(s) : 6 channels
Channel layout : L R C LFE Ls Rs
Sampling rate : 48.0 kHz
Frame rate : 31.250 FPS (1536 SPF)
Compression mode : Lossy
Stream size : 567 MiB (4%)
Language : English
Service kind : Complete Main
Default : Yes
Forced : No

Text #1
ID : 3
Format : UTF-8
Codec ID : S_TEXT/UTF8
Codec ID/Info : UTF-8 Plain Text
Duration : 1 h 57 min
Bit rate : 50 b/s
Count of elements : 1406
Stream size : 43.9 KiB (0%)
Language : English
Default : No
Forced : No

Text #2
ID : 4
Format : UTF-8
Codec ID : S_TEXT/UTF8
Codec ID/Info : UTF-8 Plain Text
Duration : 1 h 57 min
Bit rate : 53 b/s
Count of elements : 1495
Stream size : 46.6 KiB (0%)
Title : SDH
Language : English
Default : No
Forced : No


98057833037694545422_thumb.png 36084861308286518897_thumb.png 33742467383604017389_thumb.png


游客,如果您要查看本帖隐藏内容请回复





.
回复

使用道具 举报

3

主题

1476

帖子

4048

积分

中级会员

Rank: 4

积分
4048
发表于 2021-3-18 10:17:00 | 显示全部楼层
我也顶起出售广告位
回复 支持 反对

使用道具 举报

1

主题

1285

帖子

3697

积分

4K家园VIP

Rank: 9Rank: 9Rank: 9

积分
3697
发表于 2021-3-18 10:17:00 | 显示全部楼层
确实不错,顶先
回复 支持 反对

使用道具 举报

0

主题

5

帖子

18

积分

新手上路

Rank: 1

积分
18
发表于 2021-3-18 10:31:15 | 显示全部楼层
weweewe
回复

使用道具 举报

0

主题

3686

帖子

1万

积分

4K家园VIP

Rank: 9Rank: 9Rank: 9

积分
10133
发表于 2021-3-18 11:10:20 | 显示全部楼层
太好啦&萬分感謝版主的無私發佈分享%
回复 支持 反对

使用道具 举报

0

主题

2

帖子

12

积分

新手上路

Rank: 1

积分
12
发表于 2021-3-18 15:42:41 | 显示全部楼层
有免费下载的吗
回复 支持 反对

使用道具 举报

0

主题

1

帖子

6

积分

新手上路

Rank: 1

积分
6
发表于 2021-3-18 16:17:22 | 显示全部楼层
不错看看!!!!!!!!!!!
回复

使用道具 举报

47

主题

1337

帖子

3803

积分

4K家园VIP

Rank: 9Rank: 9Rank: 9

积分
3803
发表于 2021-3-20 01:47:26 来自手机 | 显示全部楼层
差评
回复 支持 反对

使用道具 举报

0

主题

4

帖子

27

积分

新手上路

Rank: 1

积分
27
发表于 2021-3-20 15:17:22 | 显示全部楼层
感谢,下载看看
回复 支持 反对

使用道具 举报

55

主题

1320

帖子

3836

积分

4K家园VIP

Rank: 9Rank: 9Rank: 9

积分
3836
发表于 2021-3-24 19:13:25 | 显示全部楼层
撸过
回复 支持 反对

使用道具 举报

您需要登录后才可以回帖 登录 | 立即注册

本版积分规则

精彩图文
Archiver|手机版|TAG|Sitemap|新帖|专题|联系我们:邮箱: 4kjia.com@gmail.com   

4k家园   ©2019