[4K UHD 蓝光原盘] 首发《世界新闻/结叛同行(港)(俄版)》4K蓝光REMUX 版本下载

  [复制链接]

809

主题

833

帖子

1万

积分

超级版主

Rank: 8Rank: 8

积分
10773
 楼主| 发表于 2021-3-18 11:15:15 | 显示全部楼层 |阅读模式
本帖最后由 没完没了 于 2021-3-18 11:50 编辑

p2635437556.webp_副本_meitu_3.jpg 13f3fb571e69_副本_meitu_2.jpg

◎译  名 世界新闻/读报人(台)/结叛同行(港)
◎片  名 News of the World
◎年  代 2020
◎产  地 美国
◎类  别 剧情/动作/西部/冒险
◎语  言 英语
◎上映日期 2020-12-25(美国)/2021-01-15(美国网络)
◎IMDb评分  6.8/10 from 47,002 users
◎IMDb链接  https://www.imdb.com/title/tt6878306/
◎豆瓣评分 7.1/10 from 3578 users
◎豆瓣链接 https://douban.com/subject/27042738/
◎片  长 118分钟
◎导  演 保罗·格林格拉斯 Paul Greengrass
◎编  剧 保罗·格林格拉斯 Paul Greengrass / 卢克·戴维斯 Luke Davies / 波莱特·吉尔斯 Paulette Jiles
◎主  演 汤姆·汉克斯 Tom Hanks
       海伦娜·泽格尔 Helena Zengel
       伊丽莎白·玛维尔 Elizabeth Marvel
       雷·迈克金农 Ray McKinnon
       梅尔·温宁汉姆 Mare Winningham
       尼尔·桑迪兰兹 Neil Sandilands
       楚克武迪·武吉 Chukwudi Iwuji
       托马斯·弗兰西斯·墨菲 Thomas Francis Murphy
       米歇尔·坎贝尔 Michelle Campbell
       弗莱德·赫钦格 Fred Hechinger
       迈克尔·安盖洛·科维诺 Michael Angelo Covino
       斯塔福德·道格拉斯 Stafford Douglas
       J·内森·西蒙斯 J. Nathan Simmons
       斯蒂芬妮·希尔 Stephanie Hill
       布兰登·韦德纳 Brenden Wedner
       汤姆·阿斯特 Tom Astor
       安迪·卡斯特利奇 Andy Kastelic
       克林特·奥本钦 Clint Obenchain


◎简  介


  美国内战结束后五年,三场战争的退伍军官杰佛森凯尔基得上尉(汤姆·汉克斯 饰),现在以读报人的身份从一个小镇到另一个小镇,和当地居民分享世界各地的精彩新闻。他在德州的平原遇到乔韩娜(海伦娜·泽格尔 饰),一 个六年前被凯奥瓦印第安人掳走并被收养的十岁女孩。乔韩娜对她未曾体验过的世界充满敌意,而且被迫被送回她的阿姨和姨丈身边。基得上尉答应护送这女孩回到她依照法律应该属于的地方。他们必须在环境严苛的野外跋山涉水好几百英哩,而且这两人在寻找一个他们都可以称为家园的地方时,将面对来自人类和大自然的巨大挑战。

  该片根据波莱特·吉尔斯同名小说改编。


◎获奖情况

  第93届奥斯卡金像奖  (2021)
  最佳摄影(提名) 达瑞兹·沃斯基
  最佳音响(提名) 约翰·普里切特 / 迈克·普雷斯特伍德·史密斯 / 奥利弗·塔尔尼
  最佳艺术指导(提名) 伊丽莎白·基南 / 大卫·格兰克
  最佳原创配乐(提名) 詹姆斯·纽顿·霍华德

  第78届金球奖  (2021)
  电影类最佳女配角(提名) 海伦娜·泽格尔
  电影类最佳原创配乐(提名)

  第74届英国电影学院奖  (2021)
  电影奖最佳摄影(提名)
  电影奖最佳艺术指导(提名)
  电影奖最佳原创配乐(提名)
  电影奖最佳音效(提名)

  第27届美国演员工会奖  (2021)
  电影奖最佳女配角(提名) 海伦娜·泽格尔
  电影最佳特技群戏(提名)

  第25届美国艺术指导工会奖  (2021)
  电影奖最佳历史电影艺术指导(提名) 大卫·格兰克 

  第68届美国音效剪辑协会奖  (2021)
  金卷轴奖最佳电影音效剪辑(提名)
  金卷轴奖最佳电影对白剪辑(提名)
  金卷轴奖最佳配乐剪辑(提名)  

  第19届美国视觉效果协会奖  (2021)
  最佳电影辅助视觉效果(提名)  

  第92届美国国家评论协会奖  (2020)
  最佳改编剧本 卢克·戴维斯 / 保罗·格林格拉斯
  年度佳片  

  第26届美国评论家选择电影奖  (2021)
  最佳影片(提名)
  最佳男主角(提名) 汤姆·汉克斯
  最佳青少年演员(提名) 海伦娜·泽格尔
  最佳改编剧本(提名) 卢克·戴维斯 / 保罗·格林格拉斯
  最佳摄影(提名) 达瑞兹·沃斯基
  最佳配乐(提名) 詹姆斯·纽顿·霍华德
  最佳美术指导(提名) 伊丽莎白·基南 / 大卫·格兰克

  第25届金卫星奖  (2021)
  电影部门最佳女配角(提名) 海伦娜·泽格尔
  电影部门最佳改编剧本(提名) 卢克·戴维斯 / 保罗·格林格拉斯
  电影部门最佳原创配乐(提名) 詹姆斯·纽顿·霍华德
  电影部门最佳摄影(提名) 达瑞兹·沃斯基

  第33届芝加哥影评人协会奖  (2020)
  最具潜力演员(提名) 海伦娜·泽格尔

  第5届亚特兰大影评人协会奖  (2020)
  最佳摄影(提名)


General
Complete name : 世界新闻(45.01GB)News.of.the.World.2020.BDREMUX.2160p.HDR.seleZen.mkv
Format : Matroska
Format version : Version 4
File size : 45.0 GiB
Duration : 1 h 58 min
Overall bit rate mode : Variable
Overall bit rate : 54.5 Mb/s
Movie name : News of the World 2020 4K from seleZen
Encoded date : UTC 2021-03-17 20:16:24
Writing application : mkvmerge v55.0.0 ('Waiting For Space') 64-bit
Writing library : libebml v1.4.2 + libmatroska v1.6.4

Video
ID : 1
Format : HEVC
Format/Info : High Efficiency Video Coding
Format profile : Main 10@L5.1@High
HDR format : SMPTE ST 2086, HDR10 compatible
Codec ID : V_MPEGH/ISO/HEVC
Duration : 1 h 58 min
Bit rate : 48.6 Mb/s
Width : 3 840 pixels
Height : 2 160 pixels
Display aspect ratio : 16:9
Frame rate mode : Constant
Frame rate : 23.976 (24000/1001) FPS
Color space : YUV
Chroma subsampling : 4:2:0 (Type 2)
Bit depth : 10 bits
Bits/(Pixel*Frame) : 0.244
Stream size : 40.1 GiB (89%)
Writing library : ATEME Titan File 3.9.6 (4.9.6.2)
Language : English
Default : Yes
Forced : No
Color range : Limited
Color primaries : BT.2020
Transfer characteristics : PQ
Matrix coefficients : BT.2020 non-constant
Mastering display color pri : Display P3
Mastering display luminance : min: 0.0050 cd/m2, max: 1000 cd/m2
Maximum Content Light Level : 1000 cd/m2
Maximum Frame-Average Light : 184 cd/m2

Audio #1
ID : 2
Format : AC-3
Format/Info : Audio Coding 3
Commercial name : Dolby Digital
Codec ID : A_AC3
Duration : 1 h 58 min
Bit rate mode : Constant
Bit rate : 640 kb/s
Channel(s) : 6 channels
Channel layout : L R C LFE Ls Rs
Sampling rate : 48.0 kHz
Frame rate : 31.250 FPS (1536 SPF)
Compression mode : Lossy
Stream size : 541 MiB (1%)
Title : Dub [Netflix]
Language : Russian
Service kind : Complete Main
Default : Yes
Forced : Yes

Audio #2
ID : 3
Format : AC-3
Format/Info : Audio Coding 3
Commercial name : Dolby Digital
Codec ID : A_AC3
Duration : 1 h 58 min
Bit rate mode : Constant
Bit rate : 448 kb/s
Channel(s) : 6 channels
Channel layout : L R C LFE Ls Rs
Sampling rate : 48.0 kHz
Frame rate : 31.250 FPS (1536 SPF)
Compression mode : Lossy
Stream size : 379 MiB (1%)
Title : MVO [HDRezka Studio]
Language : Russian
Service kind : Complete Main
Default : No
Forced : No

Audio #3
ID : 4
Format : MLP FBA 16-ch
Format/Info : Meridian Lossless Packing FBA with 16-channel presentation
Commercial name : Dolby TrueHD with Dolby Atmos
Codec ID : A_TRUEHD
Duration : 1 h 58 min
Bit rate mode : Variable
Bit rate : 4 292 kb/s
Maximum bit rate : 8 112 kb/s
Channel(s) : 8 channels
Channel layout : L R C LFE Ls Rs Lb Rb
Sampling rate : 48.0 kHz
Frame rate : 1 200.000 FPS (40 SPF)
Compression mode : Lossless
Stream size : 3.55 GiB (8%)
Title : Original
Language : English
Default : No
Forced : No
Number of dynamic objects : 11
Bed channel count : 1 channel
Bed channel configuration : LFE

Audio #4
ID : 5
Format : AC-3
Format/Info : Audio Coding 3
Commercial name : Dolby Digital
Codec ID : A_AC3
Duration : 1 h 58 min
Bit rate mode : Constant
Bit rate : 448 kb/s
Channel(s) : 6 channels
Channel layout : L R C LFE Ls Rs
Sampling rate : 48.0 kHz
Frame rate : 31.250 FPS (1536 SPF)
Compression mode : Lossy
Stream size : 379 MiB (1%)
Language : English
Service kind : Complete Main
Default : No
Forced : No

Text #1
ID : 6
Format : UTF-8
Codec ID : S_TEXT/UTF8
Codec ID/Info : UTF-8 Plain Text
Duration : 1 h 57 min
Bit rate : 2 b/s
Count of elements : 57
Stream size : 1.90 KiB (0%)
Title : Forced [For Dub]
Language : Russian
Default : Yes
Forced : Yes

Text #2
ID : 7
Format : UTF-8
Codec ID : S_TEXT/UTF8
Codec ID/Info : UTF-8 Plain Text
Duration : 1 h 52 min
Bit rate : 2 b/s
Count of elements : 68
Stream size : 2.38 KiB (0%)
Title : Forced [For HDRezka Studio]
Language : Russian
Default : No
Forced : No

Text #3
ID : 8
Format : UTF-8
Codec ID : S_TEXT/UTF8
Codec ID/Info : UTF-8 Plain Text
Duration : 1 h 57 min
Bit rate : 45 b/s
Count of elements : 944
Stream size : 39.3 KiB (0%)
Title : Full
Language : Russian
Default : No
Forced : No

Text #4
ID : 9
Format : UTF-8
Codec ID : S_TEXT/UTF8
Codec ID/Info : UTF-8 Plain Text
Duration : 1 h 50 min
Bit rate : 31 b/s
Count of elements : 1010
Stream size : 25.9 KiB (0%)
Title : Full
Language : English
Default : No
Forced : No

Text #5
ID : 10
Format : UTF-8
Codec ID : S_TEXT/UTF8
Codec ID/Info : UTF-8 Plain Text
Duration : 1 h 58 min
Bit rate : 38 b/s
Count of elements : 1358
Stream size : 33.4 KiB (0%)
Title : SDH
Language : English
Default : No
Forced : No

Menu
00:00:00.000 : en:Chapter 1
00:03:43.765 : en:Chapter 2
00:11:33.318 : en:Chapter 3
00:15:29.762 : en:Chapter 4
00:22:58.377 : en:Chapter 5
00:30:33.707 : en:Chapter 6
00:35:44.934 : en:Chapter 7
00:42:12.989 : en:Chapter 8
00:47:37.855 : en:Chapter 9
00:55:02.841 : en:Chapter 10
00:58:51.611 : en:Chapter 11
01:03:49.784 : en:Chapter 12
01:12:24.715 : en:Chapter 13
01:18:05.931 : en:Chapter 14
01:25:35.922 : en:Chapter 15
01:31:39.327 : en:Chapter 16
01:37:36.809 : en:Chapter 17
01:42:54.210 : en:Chapter 18
01:46:20.749 : en:Chapter 19
01:53:34.891 : en:Chapter 20



4K蓝光REMUX俄版资源,迅雷下载无资源或被和谐,推荐使用qBittorrent等下载软件,有条件的推荐115更好的下载软件!
世界新闻(45.01GB)News.of.the.World.2020.BDREMUX.2160p.HDR.seleZen
游客,如果您要查看本帖隐藏内容请回复


相关首发资源下载链接:[4K首发资源]《世界新闻/结叛同行》4K高清下载/大小12.77GB

1心,爱心.gif

回复

使用道具 举报

1

主题

1165

帖子

3517

积分

4K家园VIP

Rank: 9Rank: 9Rank: 9

积分
3517
发表于 2021-3-18 11:15:22 来自手机 | 显示全部楼层
楼猪辛苦了,支持一下分享好资源
回复 支持 反对

使用道具 举报

0

主题

3689

帖子

1万

积分

4K家园VIP

Rank: 9Rank: 9Rank: 9

积分
10136
发表于 2021-3-18 11:26:58 | 显示全部楼层
太好啦&萬分感謝版主的無私發佈分享%
回复 支持 反对

使用道具 举报

0

主题

214

帖子

1673

积分

4K家园VIP

Rank: 9Rank: 9Rank: 9

积分
1673
发表于 2021-3-18 11:45:25 | 显示全部楼层
支持一下分享好资源
回复 支持 反对

使用道具 举报

3

主题

1513

帖子

4107

积分

4K家园VIP

Rank: 9Rank: 9Rank: 9

积分
4107
发表于 2021-3-18 12:57:18 | 显示全部楼层
感谢分享
回复 支持 反对

使用道具 举报

1

主题

1234

帖子

3546

积分

4K家园VIP

Rank: 9Rank: 9Rank: 9

积分
3546
发表于 2021-3-18 16:00:20 | 显示全部楼层
还有没有别的资源,多分享些
回复 支持 反对

使用道具 举报

2

主题

1203

帖子

3463

积分

4K家园VIP

Rank: 9Rank: 9Rank: 9

积分
3463
发表于 2021-3-18 22:08:58 | 显示全部楼层
你们要是有4K资源记得分享,别小气
回复 支持 反对

使用道具 举报

61

主题

1352

帖子

3934

积分

4K家园VIP

Rank: 9Rank: 9Rank: 9

积分
3934
发表于 2021-3-19 08:03:13 | 显示全部楼层
多发些资源啊
回复 支持 反对

使用道具 举报

0

主题

282

帖子

2725

积分

4K家园VIP

Rank: 9Rank: 9Rank: 9

积分
2725
QQ
发表于 2021-3-20 19:40:32 | 显示全部楼层
谢谢楼主分享好电影,辛苦了!
回复 支持 反对

使用道具 举报

0

主题

2

帖子

15

积分

新手上路

Rank: 1

积分
15
发表于 2021-3-20 23:45:04 来自手机 | 显示全部楼层
感谢感谢
回复

使用道具 举报

您需要登录后才可以回帖 登录 | 立即注册

本版积分规则

精彩图文
Archiver|手机版|TAG|Sitemap|新帖|专题|联系我们:邮箱: 4kjia.com@gmail.com   

4k家园   ©2019