[4K电影] 扎克·施奈德版正义联盟 (剪辑版) 4K高清下载/大小31.67GB

  [复制链接]

409

主题

423

帖子

4076

积分

4K家园VIP

Rank: 9Rank: 9Rank: 9

积分
4076
 楼主| 发表于 2021-3-18 20:33:13 | 显示全部楼层 |阅读模式
本帖最后由 叽里呱啦 于 2021-3-25 09:33 编辑

QQ图片20210318203203_meitu_2.jpg

◎译  名 扎克·施奈德版正义联盟/查克·史奈德之正义联盟(台)/正义联盟 扎克·施奈德导演剪辑版/正义联盟导演剪辑版/Justice League Snyder Cut
◎片  名 Zack Snyder's Justice League
◎年  代 2021
◎产  地 美国
◎类  别 动作/科幻/奇幻/冒险
◎语  言 英语
◎上映日期 2021-03-18(美国)
◎IMDb链接  https://www.imdb.com/title/tt12361974/
◎豆瓣评分 /10 from 0 users
◎豆瓣链接 https://douban.com/subject/35076714/
◎片  长 242分钟
◎导  演 扎克·施奈德 Zack Snyder
◎编  剧 克里斯·特里奥 Chris Terrio / 扎克·施奈德 Zack Snyder / 威尔·比尔 Will Beall / 杰里·西格尔 Jerry Siegel / 乔·舒斯特 Joe Shuster
◎主  演 本·阿弗莱克 Ben Affleck
       亨利·卡维尔 Henry Cavill
       盖尔·加朵 Gal Gadot
       杰森·莫玛 Jason Momoa
       埃兹拉·米勒 Ezra Miller
       雷·费舍尔 Ray Fisher
       杰瑞德·莱托 Jared Leto
       艾梅柏·希尔德 Amber Heard
       艾米·亚当斯 Amy Adams
       罗宾·怀特 Robin Wright
       康妮·尼尔森 Connie Nielsen
       戴安·琳恩 Diane Lane
       乔·曼根尼罗 Joe Manganiello
       塞伦·希德 Ciarán Hinds
       J·K·西蒙斯 J.K. Simmons
       威廉·达福 Willem Dafoe
       杰西·艾森伯格 Jesse Eisenberg
       杰瑞米·艾恩斯 Jeremy Irons
       科雷西·克莱门斯 Kiersey Clemons
       雷·波特 Ray Porter
       哈里·伦尼克斯 Harry Lennix
       萨曼塔·若 Samantha Jo
       乔·莫顿 Joe Morton
       彼得·吉尼斯 Peter Guinness
       斯沃里·拉格纳内 Swaylee Loughnane
       吉安皮罗·科格诺利 Gianpiero Cognoli
       安德鲁·G·奥格尔比 Andrew G. Ogleby
       山姆·威克斯 Sam Weeks


◎简  介


  为了确保超人没有白白牺牲,蝙蝠侠和神奇女侠计划招募一支超人类团队来保护世界,这项任务比布鲁斯设想要困难得多,因为每个新人都必须面对并跨越自己过去的心魔,团结起来,最终形成前所未有的联盟。只是一切可能为时已晚,无法从荒原狼、狄萨德和达克赛德的计划中拯救地球……

Video
ID : 1
Format : HEVC
Format/Info : High Efficiency Video Coding
Format profile : Main 10@L5@Main
HDR format : SMPTE ST 2086, HDR10 compatible
Codec ID : V_MPEGH/ISO/HEVC
Duration : 4 h 2 min
Bit rate : 17.9 Mb/s
Width : 3 840 pixels
Height : 2 160 pixels
Display aspect ratio : 16:9
Frame rate mode : Constant
Frame rate : 23.976 (24000/1001) FPS
Color space : YUV
Chroma subsampling : 4:2:0
Bit depth : 10 bits
Bits/(Pixel*Frame) : 0.090
Stream size : 30.2 GiB (96%)
Writing library : x265 3.4hy:[Linux][GCC 7.5.0][64 bit] 10bit
Encoding settings : cpuid=1111039 / frame-threads=1 / wpp / no-pmode / no-pme / no-psnr / no-ssim / log-level=2 / input-csp=1 / input-res=3840x2160 / interlace=0 / total-frames=0 / level-idc=0 / high-tier=1 / uhd-bd=0 / ref=4 / no-allow-non-conformance / repeat-headers / annexb / no-aud / no-hrd / info / hash=0 / no-temporal-layers / no-open-gop / min-keyint=96 / keyint=96 / gop-lookahead=0 / bframes=3 / b-adapt=2 / b-pyramid / bframe-bias=0 / rc-lookahead=25 / lookahead-slices=4 / scenecut=40 / hist-scenecut=0 / radl=0 / no-splice / no-intra-refresh / ctu=64 / min-cu-size=8 / rect / no-amp / max-tu-size=32 / tu-inter-depth=1 / tu-intra-depth=1 / limit-tu=0 / rdoq-level=2 / dynamic-rd=0.00 / no-ssim-rd / signhide / no-tskip / nr-intra=0 / nr-inter=0 / no-constrained-intra / strong-intra-smoothing / max-merge=3 / limit-refs=3 / limit-modes / me=3 / subme=3 / merange=57 / temporal-mvp / no-frame-dup / no-hme / weightp / no-weightb / no-analyze-src-pics / deblock=0:0 / sao / no-sao-non-deblock / rd=4 / selective-sao=4 / no-early-skip / rskip / no-fast-intra / no-tskip-fast / no-cu-lossless / no-b-intra / no-splitrd-skip / rdpenalty=0 / psy-rd=2.00 / psy-rdoq=1.00 / no-rd-refine / no-lossless / cbqpoffs=0 / crqpoffs=0 / rc=abr / bitrate=18000 / qcomp=0.60 / qpstep=4 / stats-write=0 / stats-read=2 / cplxblur=20.0 / qblur=0.5 / vbv-maxrate=24500 / vbv-bufsize=24500 / vbv-init=0.6 / vbv-end=0.6 / vbv-end-fr-adj=0.0 / ipratio=1.40 / pbratio=1.30 / aq-mode=2 / aq-strength=1.00 / cutree / zone-count=0 / no-strict-cbr / qg-size=32 / no-rc-grain / qpmax=69 / qpmin=0 / no-const-vbv / sar=0 / overscan=0 / videoformat=5 / range=0 / colorprim=9 / transfer=16 / colormatrix=9 / chromaloc=0 / display-window=0 / master-display=G(13250,34500)B(7500,3000)R(34000,16000)WP(15635,16450)L(10000000,1) / cll=597,122 / min-luma=0 / max-luma=1023 / log2-max-poc-lsb=8 / vui-timing-info / vui-hrd-info / no-concatenation / slices=1 / no-opt-qp-pps / no-opt-ref-list-length-pps / no-multi-pass-opt-rps / scenecut-bias=0.05 / hist-threshold=0.01 / no-opt-cu-delta-qp / no-aq-motion / hdr10 / no-hdr10-opt / no-dhdr10-opt / no-idr-recovery-sei / analysis-reuse-level=0 / analysis-save-reuse-level=0 / analysis-load-reuse-level=0 / scale-factor=0 / refine-intra=0 / refine-inter=0 / refine-mv=1 / refine-ctu-distortion=0 / no-limit-sao / ctu-info=0 / no-lowpass-dct / refine-analysis-type=0 / copy-pic=1 / max-ausize-factor=1.0 / no-dynamic-refine / no-single-sei / no-hevc-aq / no-svt / no-field / qp-adaptation-range=1.00 / no-scenecut-aware-qpconformance-window-offsets / right=0 / bottom=0 / decoder-max-rate=0
Default : Yes
Forced : No
Color range : Limited
Color primaries : BT.2020
Transfer characteristics : PQ
Matrix coefficients : BT.2020 non-constant
Mastering display color primaries : Display P3
Mastering display luminance : min: 0.0001 cd/m2, max: 1000 cd/m2
Maximum Content Light Level : 597 cd/m2
Maximum Frame-Average Light Level : 122 cd/m2
Audio
ID : 2
Format : E-AC-3 JOC
Format/Info : Enhanced AC-3 with Joint Object Coding
Commercial name : Dolby Digital Plus with Dolby Atmos
Codec ID : A_EAC3
Duration : 4 h 2 min
Bit rate mode : Constant
Bit rate : 768 kb/s
Channel(s) : 6 channels
Channel layout : L R C LFE Ls Rs
Sampling rate : 48.0 kHz
Frame rate : 31.250 FPS (1536 SPF)
Compression mode : Lossy
Stream size : 1.30 GiB (4%)
Title : DDP 5.1 Atmos
Language : English
Service kind : Complete Main
Default : Yes
Forced : No
Complexity index : 16
Number of dynamic objects : 15
Bed channel count : 1 channel
Bed channel configuration : LFE
Text
ID : 3
Format : UTF-8
Codec ID : S_TEXT/UTF8
Codec ID/Info : UTF-8 Plain Text
Duration : 4 h 0 min
Bit rate : 40 b/s
Count of elements : 2814
Stream size : 70.7 KiB (0%)
Title : SDH
Language : English
Default : Yes
Forced : No
04465618563353962427_thumb.jpg 02041320899558350780_thumb.png 29145925718524004397_thumb.jpg
资源截图为美版资源
正义联盟.扎导版.2021ZACK_SNYDERS_JUSTICE_LEAGUE_2021_WEB-DL_2160p_HDR-BLUEBIRD.m.jpg 正义联盟.扎导版.2021ZACK_SNYDERS_JUSTICE_LEAGUE_2021_WEB-DL_2160p_HDR-BLUEBIRD.m.jpg 正义联盟.扎导版.2021ZACK_SNYDERS_JUSTICE_LEAGUE_2021_WEB-DL_2160p_HDR-BLUEBIRD.m.jpg 正义联盟.扎导版.2021ZACK_SNYDERS_JUSTICE_LEAGUE_2021_WEB-DL_2160p_HDR-BLUEBIRD.m.jpg 正义联盟.扎导版.2021ZACK_SNYDERS_JUSTICE_LEAGUE_2021_WEB-DL_2160p_HDR-BLUEBIRD.m.jpg 正义联盟.扎导版.2021ZACK_SNYDERS_JUSTICE_LEAGUE_2021_WEB-DL_2160p_HDR-BLUEBIRD.m.jpg 正义联盟.扎导版.2021ZACK_SNYDERS_JUSTICE_LEAGUE_2021_WEB-DL_2160p_HDR-BLUEBIRD.m.jpg 正义联盟.扎导版.2021ZACK_SNYDERS_JUSTICE_LEAGUE_2021_WEB-DL_2160p_HDR-BLUEBIRD.m.jpg 正义联盟.扎导版.2021ZACK_SNYDERS_JUSTICE_LEAGUE_2021_WEB-DL_2160p_HDR-BLUEBIRD.m.jpg 正义联盟.扎导版.2021ZACK_SNYDERS_JUSTICE_LEAGUE_2021_WEB-DL_2160p_HDR-BLUEBIRD.m.jpg 正义联盟.扎导版.2021ZACK_SNYDERS_JUSTICE_LEAGUE_2021_WEB-DL_2160p_HDR-BLUEBIRD.m.jpg
资源截图为俄版资源

4K高清资源,迅雷下载时无资源、被和谐,推荐使用qBittorrent等下载软件,有条件的推荐115更好的下载软件!

推荐俄版资源版本下载
游客,如果您要查看本帖隐藏内容请回复
游客,如果您要查看本帖隐藏内容请回复
游客,如果您要查看本帖隐藏内容请回复

游客,如果您要查看本帖隐藏内容请回复

游客,如果您要查看本帖隐藏内容请回复
游客,如果您要查看本帖隐藏内容请回复

游客,如果您要查看本帖隐藏内容请回复


相关外挂中文字幕文件下载(关于字幕问题不接受任何差评或好评,完美主义者自行下载文件)


字幕文件:扎克·施奈德版正义联盟.Zack Snyder's Justice League.2021.chs.zip.zip (41.59 KB)
正义联盟.扎导版.2021ZACK_SNYDERS_JUSTICE_LEAGUE_2021_WEB-DL_2160p_HDR-BLUEBIRD.m.jpg
回复

使用道具 举报

409

主题

423

帖子

4076

积分

4K家园VIP

Rank: 9Rank: 9Rank: 9

积分
4076
 楼主| 发表于 2021-3-19 12:15:06 | 显示全部楼层
qtyujijian 发表于 2021-3-18 20:40
这种子下不动  废了



是你下载姿势有问题吧
回复 支持 反对

使用道具 举报

0

主题

2

帖子

45

积分

4K家园VIP

Rank: 9Rank: 9Rank: 9

积分
45
发表于 2021-3-18 20:40:34 | 显示全部楼层
这种子下不动  废了
回复 支持 2 反对 0

使用道具 举报

0

主题

1035

帖子

3083

积分

4K家园VIP

Rank: 9Rank: 9Rank: 9

积分
3083
发表于 2021-3-18 20:33:42 | 显示全部楼层
学习下
回复 支持 反对

使用道具 举报

0

主题

1

帖子

6

积分

新手上路

Rank: 1

积分
6
发表于 2021-3-18 20:39:35 | 显示全部楼层
最近的大热门
回复 支持 反对

使用道具 举报

0

主题

1

帖子

6

积分

新手上路

Rank: 1

积分
6
发表于 2021-3-18 20:42:44 | 显示全部楼层
学习一下!
回复

使用道具 举报

0

主题

16

帖子

237

积分

新手上路

Rank: 1

积分
237
QQ
发表于 2021-3-18 20:44:06 | 显示全部楼层
额。。。。。。。。。。。
回复

使用道具 举报

0

主题

5

帖子

30

积分

4K家园VIP

Rank: 9Rank: 9Rank: 9

积分
30
发表于 2021-3-18 20:46:40 | 显示全部楼层
6666666666666
回复 支持 反对

使用道具 举报

0

主题

1

帖子

10

积分

新手上路

Rank: 1

积分
10
发表于 2021-3-18 20:51:26 | 显示全部楼层
HAOKANDHASLKD
回复 支持 反对

使用道具 举报

0

主题

7

帖子

39

积分

新手上路

Rank: 1

积分
39
发表于 2021-3-18 20:52:49 | 显示全部楼层
没字幕吗?
回复

使用道具 举报

0

主题

18

帖子

104

积分

新手上路

Rank: 1

积分
104
发表于 2021-3-18 20:53:46 | 显示全部楼层
回复

使用道具 举报

您需要登录后才可以回帖 登录 | 立即注册

本版积分规则

精彩图文
Archiver|手机版|TAG|Sitemap|新帖|专题|联系我们:邮箱: 4kjia.com@gmail.com   

4k家园   ©2019