[4K记录视频] [国家地理] 吉隆坡的摩天大楼(2021)[2160P/MKV/275MB]

[复制链接]

2262

主题

2551

帖子

2万

积分

超级版主

Rank: 8Rank: 8

积分
21144
 楼主| 发表于 2021-3-25 10:30:00 | 显示全部楼层 |阅读模式
摩天大楼(275MB) The Exchange 106(2021)WEBRip 2160p.mkv_20210324_201743.986.jpg 摩天大楼(275MB) The Exchange 106(2021)WEBRip 2160p.mkv_20210324_201754.611.jpg 摩天大楼(275MB) The Exchange 106(2021)WEBRip 2160p.mkv_20210324_201804.162.jpg 摩天大楼(275MB) The Exchange 106(2021)WEBRip 2160p.mkv_20210324_201810.859.jpg 摩天大楼(275MB) The Exchange 106(2021)WEBRip 2160p.mkv_20210324_201818.243.jpg 摩天大楼(275MB) The Exchange 106(2021)WEBRip 2160p.mkv_20210324_201824.162.jpg

有关信息
标题:摩天大楼
国家/地区:马来西亚
时长: 00 : 02 : 32
发行: 2021年
类型: 种类
导演: Arnab Gurun

关于电影:

        The Exchange 106是吉隆坡的一幢高层摩天大楼。该建筑物的高度超过了国油双峰塔的屋顶,就屋顶高度而言,将保持该城市乃至整个东南亚最高的建筑物至少几年。



General
Complete name                  : 吉隆坡的摩天大楼(275MB) The Exchange 106(2021)WEBRip 2160p.mkv
Format                         : Matroska
Format version                 : Version 4
File size                      : 275 MiB
Duration                       : 2 min 32 s
Overall bit rate               : 15.1 Mb/s
Encoded date                   : UTC 2021-03-23 20:08:54
Writing application            : mkvmerge v55.0.0 ('Waiting For Space') 64-bit
Writing library                : libebml v1.4.2 + libmatroska v1.6.4 / Lavf58.29.100

Video
ID                             : 1
Format                         : VP9
Codec ID                       : V_VP9
Duration                       : 2 min 32 s
Bit rate                       : 15.0 Mb/s
Width                          : 3 840 pixels
Height                         : 2 160 pixels
Display aspect ratio           : 16:9
Frame rate mode                : Constant
Frame rate                     : 25.000 FPS
Color space                    : YUV
Bits/(Pixel*Frame)             : 0.072
Stream size                    : 273 MiB (99%)
Default                        : Yes
Forced                         : No
Color range                    : Limited
Color primaries                : BT.709
Transfer characteristics       : BT.709
Matrix coefficients            : BT.709

Audio
ID                             : 2
Format                         : Opus
Codec ID                       : A_OPUS
Duration                       : 2 min 32 s
Bit rate                       : 128 kb/s
Channel(s)                     : 2 channels
Channel layout                 : L R
Sampling rate                  : 48.0 kHz
Frame rate                     : 50.005 FPS (960 SPF)
Bit depth                      : 16 bits
Compression mode               : Lossy
Stream size                    : 2.34 MiB (1%)
Default                        : Yes
Forced                         : No



吉隆坡的摩天大楼(2021)[2160PMKV275MB].torrent (11.77 KB, 售价: 15 金币)
回复

使用道具 举报

57

主题

1384

帖子

4000

积分

4K家园VIP

Rank: 9Rank: 9Rank: 9

积分
4000
发表于 2021-3-25 10:30:06 | 显示全部楼层
感谢楼主的分享,还是阔以滴
回复 支持 反对

使用道具 举报

0

主题

3503

帖子

9830

积分

4K家园VIP

Rank: 9Rank: 9Rank: 9

积分
9830
发表于 2021-3-25 11:38:01 | 显示全部楼层
马来西亚吉隆坡的摩天大楼4k
回复 支持 反对

使用道具 举报

0

主题

1

帖子

6

积分

新手上路

Rank: 1

积分
6
发表于 2021-3-26 08:22:45 | 显示全部楼层
感谢楼主的分享。
回复 支持 反对

使用道具 举报

1

主题

1202

帖子

3611

积分

4K家园VIP

Rank: 9Rank: 9Rank: 9

积分
3611
发表于 2021-3-27 09:29:48 | 显示全部楼层
一直在看
回复 支持 反对

使用道具 举报

2

主题

1521

帖子

4159

积分

4K家园VIP

Rank: 9Rank: 9Rank: 9

积分
4159
发表于 2021-3-27 23:06:08 | 显示全部楼层
OMG!介是啥东东!!!
回复 支持 反对

使用道具 举报

0

主题

1236

帖子

3570

积分

4K家园VIP

Rank: 9Rank: 9Rank: 9

积分
3570
发表于 2021-3-29 18:46:43 | 显示全部楼层
元芳你怎么看?
回复 支持 反对

使用道具 举报

1

主题

1151

帖子

3471

积分

4K家园VIP

Rank: 9Rank: 9Rank: 9

积分
3471
发表于 2021-3-30 00:34:46 | 显示全部楼层
支持,楼下的跟上哈~
回复 支持 反对

使用道具 举报

0

主题

413

帖子

1414

积分

注册会员

Rank: 2

积分
1414
发表于 2021-3-31 22:06:02 | 显示全部楼层
感谢楼主分享
回复 支持 反对

使用道具 举报

您需要登录后才可以回帖 登录 | 立即注册

本版积分规则

精彩图文
Archiver|手机版|TAG|Sitemap|新帖|专题|联系我们:邮箱: 4kjia.com@gmail.com   

4k家园   ©2019