[4K记录视频] [国家地理] 阿什利国家森林公园(2020)[2160P/MKV/453MB]

[复制链接]

2263

主题

2552

帖子

2万

积分

超级版主

Rank: 8Rank: 8

积分
21158
 楼主| 发表于 2021-3-26 11:00:00 | 显示全部楼层 |阅读模式

阿什利国家森林(453.28MB)(2020)WEBRip 2160p.mkv_20210324_202852.427.jpg 阿什利国家森林(453.28MB)(2020)WEBRip 2160p.mkv_20210324_202903.043.jpg 阿什利国家森林(453.28MB)(2020)WEBRip 2160p.mkv_20210324_202910.755.jpg 阿什利国家森林(453.28MB)(2020)WEBRip 2160p.mkv_20210324_202918.331.jpg 阿什利国家森林(453.28MB)(2020)WEBRip 2160p.mkv_20210324_202925.963.jpg 阿什利国家森林(453.28MB)(2020)WEBRip 2160p.mkv_20210324_202939.283.jpg

标题:阿什利国家森林公园
发行: 2020
国家/地区:美国
时长: 00 : 02 : 51
类型: 物种
导演:帕蒂兹兄弟

电影节的电影:

       探索峡谷,山谷,森林,沙漠和草原,而我们将带您从日出到日落这个遥远而美丽的风景。



General
Complete name                  : 国家地理\阿什利国家森林公园(453.28MB)(2020)WEBRip 2160p.mkv
Format                         : Matroska
Format version                 : Version 4
File size                      : 453 MiB
Duration                       : 2 min 51 s
Overall bit rate               : 22.2 Mb/s
Encoded date                   : UTC 2021-02-17 06:38:05
Writing application            : mkvmerge v53.0.0 ('Fool's Gold') 64-bit
Writing library                : libebml v1.4.1 + libmatroska v1.6.2

Video
ID                             : 1
Format                         : AVC
Format/Info                    : Advanced Video Codec
Format profile                 : High@L5.2
Format settings                : CABAC / 5 Ref Frames
Format settings, CABAC         : Yes
Format settings, Reference fra : 5 frames
Codec ID                       : V_MPEG4/ISO/AVC
Duration                       : 2 min 51 s
Bit rate                       : 22.0 Mb/s
Width                          : 3 840 pixels
Height                         : 2 160 pixels
Display aspect ratio           : 16:9
Frame rate mode                : Constant
Frame rate                     : 23.976 FPS
Color space                    : YUV
Chroma subsampling             : 4:2:0
Bit depth                      : 8 bits
Scan type                      : Progressive
Bits/(Pixel*Frame)             : 0.110
Stream size                    : 448 MiB (99%)
Writing library                : x264 core 159 r10 1771b55
Encoding settings              : cabac=1 / ref=5 / deblock=1:0:0 / analyse=0x3:0x113 / me=hex / subme=8 / psy=1 / psy_rd=1.00:0.00 / mixed_ref=1 / me_range=16 / chroma_me=1 / trellis=2 / 8x8dct=1 / cqm=0 / deadzone=21,11 / fast_pskip=1 / chroma_qp_offset=-2 / threads=48 / lookahead_threads=8 / sliced_threads=0 / nr=0 / decimate=1 / interlaced=0 / bluray_compat=0 / stitchable=1 / constrained_intra=0 / bframes=3 / b_pyramid=2 / b_adapt=2 / b_bias=0 / direct=3 / weightb=1 / open_gop=0 / weightp=2 / keyint=infinite / keyint_min=23 / scenecut=40 / intra_refresh=0 / rc_lookahead=50 / rc=crf / mbtree=1 / crf=20.0 / qcomp=0.60 / qpmin=5 / qpmax=69 / qpstep=4 / vbv_maxrate=24200 / vbv_bufsize=66000 / crf_max=0.0 / nal_hrd=none / filler=0 / ip_ratio=1.40 / aq=1:1.00
Default                        : Yes
Forced                         : No
Color range                    : Limited
Color primaries                : BT.709
Transfer characteristics       : BT.709
Matrix coefficients            : BT.709

Audio
ID                             : 2
Format                         : AAC LC
Format/Info                    : Advanced Audio Codec Low Complexity
Codec ID                       : A_AAC-2
Duration                       : 2 min 51 s
Bit rate                       : 253 kb/s
Channel(s)                     : 2 channels
Channel layout                 : L R
Sampling rate                  : 48.0 kHz
Frame rate                     : 46.875 FPS (1024 SPF)
Compression mode               : Lossy
Stream size                    : 5.17 MiB (1%)
Default                        : Yes
Forced                         : No



阿什利国家森林公园(453.28MB)(2020)WEBRip 2160p.torrent (18.73 KB, 售价: 15 金币)
回复

使用道具 举报

3

主题

1207

帖子

3639

积分

4K家园VIP

Rank: 9Rank: 9Rank: 9

积分
3639
发表于 2021-3-26 11:00:06 | 显示全部楼层
啊啊啊啊啊啊啊啊啊啊啊
回复 支持 反对

使用道具 举报

49

主题

1286

帖子

3690

积分

4K家园VIP

Rank: 9Rank: 9Rank: 9

积分
3690
发表于 2021-3-26 11:00:06 来自手机 | 显示全部楼层
支持支持再支持
回复 支持 反对

使用道具 举报

0

主题

3522

帖子

9862

积分

4K家园VIP

Rank: 9Rank: 9Rank: 9

积分
9862
发表于 2021-3-26 11:40:32 | 显示全部楼层
美国阿什利国家森林公园4k
回复 支持 反对

使用道具 举报

0

主题

418

帖子

1432

积分

注册会员

Rank: 2

积分
1432
发表于 2021-3-30 21:36:46 | 显示全部楼层
感谢楼主分享
回复 支持 反对

使用道具 举报

您需要登录后才可以回帖 登录 | 立即注册

本版积分规则

精彩图文
Archiver|手机版|TAG|Sitemap|新帖|专题|联系我们:邮箱: 4kjia.com@gmail.com   

4k家园   ©2019