[4K记录视频] [国家地理] 立陶宛的一年四季(2019)[2160P/MKV/446MB]

[复制链接]

2262

主题

2551

帖子

2万

积分

超级版主

Rank: 8Rank: 8

积分
21144
 楼主| 发表于 2021-3-29 10:30:00 | 显示全部楼层 |阅读模式

立陶宛的一年(446.37MB)(2019)WE​​BRip 2160p.mkv_20210324_204933.380.jpg 立陶宛的一年(446.37MB)(2019)WE​​BRip 2160p.mkv_20210324_204951.884.jpg 立陶宛的一年(446.37MB)(2019)WE​​BRip 2160p.mkv_20210324_205003.500.jpg 立陶宛的一年(446.37MB)(2019)WE​​BRip 2160p.mkv_20210324_205012.036.jpg 立陶宛的一年(446.37MB)(2019)WE​​BRip 2160p.mkv_20210324_205023.956.jpg 立陶宛的一年(446.37MB)(2019)WE​​BRip 2160p.mkv_20210324_205032.444.jpg

有关信息
标题:立陶宛的一年四季
发行年份: 2019
国家/地区:立陶宛
时间: 00 : 03 : 16
体裁: 种属
导演: Nerius Buteikis

关于电影:

        立陶宛流行和空前的乡村。


General
Complete name                  : 国家地理\立陶宛的一年四季(446.37MB)(2019)WE​​BRip 2160p.mkv
Format                         : Matroska
Format version                 : Version 4
File size                      : 446 MiB
Duration                       : 3 min 16 s
Overall bit rate               : 19.0 Mb/s
Encoded date                   : UTC 2019-12-23 09:30:05
Writing application            : mkvmerge v41.0.0 ('Smarra') 64-bit
Writing library                : libebml v1.3.9 + libmatroska v1.5.2

Video
ID                             : 1
Format                         : AVC
Format/Info                    : Advanced Video Codec
Format profile                 : High@L5.2
Format settings                : CABAC / 5 Ref Frames
Format settings, CABAC         : Yes
Format settings, Reference fra : 5 frames
Codec ID                       : V_MPEG4/ISO/AVC
Duration                       : 3 min 16 s
Bit rate                       : 18.8 Mb/s
Width                          : 3 840 pixels
Height                         : 2 160 pixels
Display aspect ratio           : 16:9
Frame rate mode                : Constant
Frame rate                     : 29.970 (30000/1001) FPS
Color space                    : YUV
Chroma subsampling             : 4:2:0
Bit depth                      : 8 bits
Scan type                      : Progressive
Bits/(Pixel*Frame)             : 0.076
Stream size                    : 440 MiB (99%)
Writing library                : x264 core 157 r10 d4099dd
Encoding settings              : cabac=1 / ref=5 / deblock=1:0:0 / analyse=0x3:0x113 / me=hex / subme=8 / psy=1 / psy_rd=1.00:0.00 / mixed_ref=1 / me_range=16 / chroma_me=1 / trellis=2 / 8x8dct=1 / cqm=0 / deadzone=21,11 / fast_pskip=1 / chroma_qp_offset=-2 / threads=48 / lookahead_threads=8 / sliced_threads=0 / nr=0 / decimate=1 / interlaced=0 / bluray_compat=0 / stitchable=1 / constrained_intra=0 / bframes=3 / b_pyramid=2 / b_adapt=2 / b_bias=0 / direct=3 / weightb=1 / open_gop=0 / weightp=2 / keyint=infinite / keyint_min=29 / scenecut=40 / intra_refresh=0 / rc_lookahead=50 / rc=crf / mbtree=1 / crf=20.0 / qcomp=0.60 / qpmin=5 / qpmax=69 / qpstep=4 / vbv_maxrate=24200 / vbv_bufsize=66000 / crf_max=0.0 / nal_hrd=none / filler=0 / ip_ratio=1.40 / aq=1:1.00
Default                        : Yes
Forced                         : No
Color range                    : Limited
Color primaries                : BT.709
Transfer characteristics       : BT.709
Matrix coefficients            : BT.709

Audio
ID                             : 2
Format                         : AAC LC
Format/Info                    : Advanced Audio Codec Low Complexity
Codec ID                       : A_AAC-2
Duration                       : 3 min 16 s
Bit rate                       : 253 kb/s
Channel(s)                     : 2 channels
Channel layout                 : L R
Sampling rate                  : 48.0 kHz
Frame rate                     : 46.875 FPS (1024 SPF)
Compression mode               : Lossy
Stream size                    : 5.94 MiB (1%)
Default                        : Yes
Forced                         : No



立陶宛的一年四季(446.37MB)(2019)WE​​BRip 2160p.torrent (18.45 KB, 售价: 15 金币)
回复

使用道具 举报

0

主题

1466

帖子

3978

积分

4K家园VIP

Rank: 9Rank: 9Rank: 9

积分
3978
发表于 2021-3-29 10:30:10 来自手机 | 显示全部楼层
撸过
回复 支持 反对

使用道具 举报

0

主题

3503

帖子

9830

积分

4K家园VIP

Rank: 9Rank: 9Rank: 9

积分
9830
发表于 2021-3-29 11:05:47 | 显示全部楼层
立陶宛的一年四季4k
回复 支持 反对

使用道具 举报

0

主题

2

帖子

9

积分

新手上路

Rank: 1

积分
9
发表于 2021-3-29 15:47:25 | 显示全部楼层
感谢分享·~
回复 支持 反对

使用道具 举报

0

主题

418

帖子

1432

积分

注册会员

Rank: 2

积分
1432
发表于 2021-3-31 22:01:34 | 显示全部楼层
感谢楼主分享
回复 支持 反对

使用道具 举报

您需要登录后才可以回帖 登录 | 立即注册

本版积分规则

精彩图文
Archiver|手机版|TAG|Sitemap|新帖|专题|联系我们:邮箱: 4kjia.com@gmail.com   

4k家园   ©2019