[4K记录视频] [国家地理] 扁平头国家森林(2019)[2160P/MKV/669MB]

[复制链接]

2262

主题

2551

帖子

2万

积分

超级版主

Rank: 8Rank: 8

积分
21144
 楼主| 发表于 2021-3-31 11:30:00 | 显示全部楼层 |阅读模式

扁平头国家森林(669.02MB)(2019)WE​​BRip 2160p.mkv_20210324_210601.108.jpg.jpg 扁平头国家森林(669.02MB)(2019)WE​​BRip 2160p.mkv_20210324_210611.957.jpg.jpg 扁平头国家森林(669.02MB)(2019)WE​​BRip 2160p.mkv_20210324_210619.036.jpg.jpg 扁平头国家森林(669.02MB)(2019)WE​​BRip 2160p.mkv_20210324_210632.524.jpg.jpg 扁平头国家森林(669.02MB)(2019)WE​​BRip 2160p.mkv_20210324_210642.556.jpg.jpg 扁平头国家森林(669.02MB)(2019)WE​​BRip 2160p.mkv_20210324_210711.117.jpg.jpg

有关信息
标题: National Forest Flathead
发行: 2019年
国家/地区:美国
时间: 00 : 03 : 56
类型: 种类
导演: The Pattiz Brothers

电影:

       National Forest Flathead位于蒙大拿州的西北角,占地240万英亩。Flathead的心脏地带是一百万英亩未受污染的荒野。


General
Complete name                  : 国家地理\扁平头国家森林(669.02MB)(2019)WE​​BRip 2160p.mkv
Format                         : Matroska
Format version                 : Version 4
File size                      : 669 MiB
Duration                       : 3 min 56 s
Overall bit rate               : 23.8 Mb/s
Encoded date                   : UTC 2021-02-17 05:38:41
Writing application            : mkvmerge v53.0.0 ('Fool's Gold') 64-bit
Writing library                : libebml v1.4.1 + libmatroska v1.6.2

Video
ID                             : 1
Format                         : AVC
Format/Info                    : Advanced Video Codec
Format profile                 : High@L5.2
Format settings                : CABAC / 5 Ref Frames
Format settings, CABAC         : Yes
Format settings, Reference fra : 5 frames
Codec ID                       : V_MPEG4/ISO/AVC
Duration                       : 3 min 56 s
Bit rate                       : 23.6 Mb/s
Width                          : 3 840 pixels
Height                         : 2 160 pixels
Display aspect ratio           : 16:9
Frame rate mode                : Constant
Frame rate                     : 23.976 (24000/1001) FPS
Color space                    : YUV
Chroma subsampling             : 4:2:0
Bit depth                      : 8 bits
Scan type                      : Progressive
Bits/(Pixel*Frame)             : 0.119
Stream size                    : 665 MiB (99%)
Writing library                : x264 core 157 r10 d4099dd
Encoding settings              : cabac=1 / ref=5 / deblock=1:0:0 / analyse=0x3:0x113 / me=hex / subme=8 / psy=1 / psy_rd=1.00:0.00 / mixed_ref=1 / me_range=16 / chroma_me=1 / trellis=2 / 8x8dct=1 / cqm=0 / deadzone=21,11 / fast_pskip=1 / chroma_qp_offset=-2 / threads=48 / lookahead_threads=8 / sliced_threads=0 / nr=0 / decimate=1 / interlaced=0 / bluray_compat=0 / stitchable=1 / constrained_intra=0 / bframes=3 / b_pyramid=2 / b_adapt=2 / b_bias=0 / direct=3 / weightb=1 / open_gop=0 / weightp=2 / keyint=infinite / keyint_min=23 / scenecut=40 / intra_refresh=0 / rc_lookahead=50 / rc=crf / mbtree=1 / crf=20.0 / qcomp=0.60 / qpmin=5 / qpmax=69 / qpstep=4 / vbv_maxrate=24200 / vbv_bufsize=66000 / crf_max=0.0 / nal_hrd=none / filler=0 / ip_ratio=1.40 / aq=1:1.00
Default                        : Yes
Forced                         : No
Color range                    : Limited
Color primaries                : BT.709
Transfer characteristics       : BT.709
Matrix coefficients            : BT.709

Audio
ID                             : 2
Format                         : AAC LC
Format/Info                    : Advanced Audio Codec Low Complexity
Codec ID                       : A_AAC-2
Duration                       : 3 min 56 s
Bit rate                       : 137 kb/s
Channel(s)                     : 2 channels
Channel layout                 : L R
Sampling rate                  : 48.0 kHz
Frame rate                     : 46.875 FPS (1024 SPF)
Compression mode               : Lossy
Stream size                    : 3.86 MiB (1%)
Default                        : Yes
Forced                         : No



扁平头国家森林(669.02MB)(2019)WE​​BRip 2160p.torrent (14.11 KB, 售价: 15 金币)
回复

使用道具 举报

50

主题

1420

帖子

4070

积分

4K家园VIP

Rank: 9Rank: 9Rank: 9

积分
4070
发表于 2021-3-31 11:30:09 | 显示全部楼层
正好需要啊
回复 支持 反对

使用道具 举报

1

主题

1205

帖子

3433

积分

4K家园VIP

Rank: 9Rank: 9Rank: 9

积分
3433
发表于 2021-3-31 13:06:40 | 显示全部楼层
纯粹路过,没任何兴趣,仅仅是看在老用户份上回复一下
回复 支持 反对

使用道具 举报

1

主题

1267

帖子

3637

积分

4K家园VIP

Rank: 9Rank: 9Rank: 9

积分
3637
发表于 6 天前 | 显示全部楼层
不错 支持一个了
回复 支持 反对

使用道具 举报

1

主题

1198

帖子

3458

积分

4K家园VIP

Rank: 9Rank: 9Rank: 9

积分
3458
发表于 4 天前 来自手机 | 显示全部楼层
支持楼主,用户楼主,楼主英明呀!!!
回复 支持 反对

使用道具 举报

37

主题

1365

帖子

3873

积分

4K家园VIP

Rank: 9Rank: 9Rank: 9

积分
3873
发表于 3 天前 | 显示全部楼层
感谢分享
回复 支持 反对

使用道具 举报

您需要登录后才可以回帖 登录 | 立即注册

本版积分规则

精彩图文
Archiver|手机版|TAG|Sitemap|新帖|专题|联系我们:邮箱: 4kjia.com@gmail.com   

4k家园   ©2019