[4K电影] [4K首发资源]《Hero Dog: The Journey Home》4K高清下载/大小10.30GB

[复制链接]

411

主题

425

帖子

4095

积分

4K家园VIP

Rank: 9Rank: 9Rank: 9

积分
4095
 楼主| 发表于 2021-3-25 10:49:44 | 显示全部楼层 |阅读模式
本帖最后由 最爱4K哟 于 2021-3-25 10:52 编辑

p2636334754.webp.jpg

◎译  名 无
◎片  名 Hero Dog: The Journey Home
◎年  代 2021
◎产  地 加拿大
◎类  别 剧情 / 冒险
◎语  言 英语
◎上映日期 2021-01-30(加拿大)
◎IMDb评分  5.8/10 from 71 users
◎IMDb链接  https://www.imdb.com/title/tt11045566/?ref_=fn_al_tt_1
◎豆瓣评分 0/10 from  users
◎豆瓣链接 https://movie.douban.com/subject/35408108/
◎片  长 90分钟
◎导  演 理查德·博丁顿
◎编  剧 理查德·博丁顿 / 理查德·克拉克
◎主  演 teve Byers  
                   扎克瑞·亚瑟  
                   Donovan Brown


剧情简介:


         阿拉斯加马拉默特人奇努克(Chinook)必须带领一名失事的盲人走出荒野,而这名男子的孩子们则自己展开救援任务。

General
Complete name                  : Hero.Dog.The.Journey.Home.2021.2160p.AMZN.WEB-DL.DDP5.1.HEVC-EVO.mkv
Format                         : Matroska
Format version                 : Version 4
File size                      : 10.3 GiB
Duration                       : 1 h 30 min
Overall bit rate               : 16.3 Mb/s
Movie name                     : EVO
Encoded date                   : UTC 2021-03-23 16:35:00
Writing application            : mkvmerge v49.0.0 ('Sick Of Losing Soulmates') 64-bit
Writing library                : libebml v1.4.0 + libmatroska v1.6.1

Video
ID                             : 1
Format                         : HEVC
Format/Info                    : High Efficiency Video Coding
Format profile                 : Main@L5.1@Main
Codec ID                       : V_MPEGH/ISO/HEVC
Bit rate                       : 14.7 Mb/s
Width                          : 3 840 pixels
Height                         : 2 160 pixels
Display aspect ratio           : 16:9
Frame rate mode                : Variable
Original frame rate            : 23.976 FPS
Color space                    : YUV
Chroma subsampling             : 4:2:0
Bit depth                      : 8 bits
Default                        : Yes
Forced                         : No
Color range                    : Limited
Color primaries                : BT.709
Transfer characteristics       : BT.709
Matrix coefficients            : BT.709

Audio #1
ID                             : 2
Format                         : AC-3
Format/Info                    : Audio Coding 3
Commercial name                : Dolby Digital
Codec ID                       : A_AC3
Duration                       : 1 h 30 min
Bit rate mode                  : Constant
Bit rate                       : 640 kb/s
Channel(s)                     : 6 channels
Channel layout                 : L R C LFE Ls Rs
Sampling rate                  : 48.0 kHz
Frame rate                     : 31.250 FPS (1536 SPF)
Compression mode               : Lossy
Stream size                    : 413 MiB (4%)
Title                          : English
Language                       : English
Service kind                   : Complete Main
Default                        : Yes
Forced                         : No

Audio #2
ID                             : 4
Format                         : AC-3
Format/Info                    : Audio Coding 3
Commercial name                : Dolby Digital
Codec ID                       : A_AC3
Duration                       : 1 h 30 min
Bit rate mode                  : Constant
Bit rate                       : 640 kb/s
Channel(s)                     : 6 channels
Channel layout                 : L R C LFE Ls Rs
Sampling rate                  : 48.0 kHz
Frame rate                     : 31.250 FPS (1536 SPF)
Compression mode               : Lossy
Stream size                    : 413 MiB (4%)
Title                          : English
Language                       : English
Service kind                   : Complete Main
Default                        : No
Forced                         : No

Text
ID                             : 3
Format                         : UTF-8
Codec ID                       : S_TEXT/UTF8
Codec ID/Info                  : UTF-8 Plain Text
Title                          : English
Language                       : English
Default                        : No
Forced                         : No

Hero.Dog.The.Journey.Home.2021.2160p.AMZN.WEB-DL.DDP5.1.HEVC-EVO.mkv_20210325_10.jpg Harone1674iWPmJ.jpg Harone2025.jpg Harone29388.jpg


游客,如果您要查看本帖隐藏内容请回复



.
回复

使用道具 举报

0

主题

1181

帖子

3389

积分

4K家园VIP

Rank: 9Rank: 9Rank: 9

积分
3389
发表于 2021-3-25 10:52:01 来自手机 | 显示全部楼层
向楼主学习
回复 支持 反对

使用道具 举报

0

主题

3521

帖子

9861

积分

4K家园VIP

Rank: 9Rank: 9Rank: 9

积分
9861
发表于 2021-3-25 11:41:20 | 显示全部楼层
阿拉斯加马拉默特人奇努克4k
回复 支持 反对

使用道具 举报

0

主题

1

帖子

6

积分

新手上路

Rank: 1

积分
6
发表于 2021-3-25 12:54:27 | 显示全部楼层
谢谢分享。。
回复

使用道具 举报

2

主题

1308

帖子

3776

积分

4K家园VIP

Rank: 9Rank: 9Rank: 9

积分
3776
发表于 2021-3-26 08:57:07 | 显示全部楼层
为保住菊花,这个一定得回复!
回复 支持 反对

使用道具 举报

0

主题

1230

帖子

3530

积分

4K家园VIP

Rank: 9Rank: 9Rank: 9

积分
3530
发表于 2021-4-3 10:18:47 | 显示全部楼层
前排顶起
回复 支持 反对

使用道具 举报

39

主题

1368

帖子

3896

积分

4K家园VIP

Rank: 9Rank: 9Rank: 9

积分
3896
发表于 7 天前 | 显示全部楼层
我也是坐沙发的
回复 支持 反对

使用道具 举报

52

主题

1332

帖子

3826

积分

4K家园VIP

Rank: 9Rank: 9Rank: 9

积分
3826
发表于 6 天前 来自手机 | 显示全部楼层
我也是坐沙发的
回复 支持 反对

使用道具 举报

您需要登录后才可以回帖 登录 | 立即注册

本版积分规则

精彩图文
Archiver|手机版|TAG|Sitemap|新帖|专题|联系我们:邮箱: 4kjia.com@gmail.com   

4k家园   ©2019