[4K UHD 蓝光原盘] 鹰眼/鹰眼追击/Eagle Eye(2008)4K高清版本下载/54.83GB

  [复制链接]

803

主题

827

帖子

1万

积分

超级版主

Rank: 8Rank: 8

积分
10704
 楼主| 发表于 2021-3-26 10:47:15 | 显示全部楼层 |阅读模式
QQ图片20210326101449_副本_meitu_2.jpg

◎译  名 鹰眼/鹰眼追击
◎片  名 Eagle Eye
◎年  代 2008
◎产  地 美国,德国
◎类  别 动作 / 悬疑 / 惊悚
◎语  言 英语
◎上映日期 2008-09-26(美国) / 2008-10-09(德国)
◎IMDb评分 6.6/10 from 174888 users
◎IMDb链接 https://www.imdb.com/title/tt1059786/
◎豆瓣评分 7.2/10 from 44031 users
◎豆瓣链接 https://movie.douban.com/subject/2264715/
◎片  长 118分钟
◎导  演 D·J·卡卢索 D.J. Caruso
◎编  剧 约翰·格伦 John Glenn / 特拉维斯·赖特 Travis Wright / 希拉里·塞茨 Hillary Seitz / 丹·麦克德莫特 Dan McDermott
◎主  演 希亚·拉博夫 Shia LaBeouf
      罗莎里奥·道森 Rosario Dawson
      米歇尔·莫纳汉 Michelle Monaghan
      比利·鲍伯·松顿 Billy Bob Thornton
      伊桑·恩布里 Ethan Embry
      约翰·R·邓肯 John R. Duncan
      Jarrod W. Robbins
      约翰·罗伯特 John Robert
      James Warfield
      Henry Sandifer
      Chase Penny
      Jack Chevanty
      Lucas Mroczkowski
      迈克尔·丹尼尔·卡萨迪 Michael Daniel Cassady
      马特·德卡罗 Matt DeCaro
      J.帕特里克·麦克康尔马克 J. Patrick McCormack
      肯特·绍克内克 Kent Shocknek
      林恩·科恩 Lynn Cohen
      唐·阿伯纳西 Don Abernathy
      彼得·盖尔 Peter Gail
      Gubbi Sigurdsson
      胡安·巴勃罗·维泽格 Juan Pablo Veizaga
      朱丽安·摩尔 Julianne Moore
      安东尼·阿齐兹 Anthony Azizi
      格雷格·科林斯 Greg Collins
      G·拉里·巴特勒 G. Larry Butler
      西尔克·科扎特 Cylk Cozart
      查尔斯·卡罗尔 Charles Carroll
      布拉德·格伦伯格 Brad Grunberg
      拉尔夫·加曼 Ralph Garman
      迈克尔·卡斯洛夫 Michael Kostroff
      布瑞塔妮·石桥 Brittany Ishibashi
      唐·杰夫科特 Don Jeffcoat
      麦迪逊·梅森 Madison Mason
      Michael Maize
      Eric Bolton
      迈克尔·切克利斯 Michael Chiklis
      威廉姆·赛德勒 William Sadler
      马克·辛格 Marc Singer
      Christopher Andrews
      杰姆斯·黄 James Huang
      艾瑞克·克里斯蒂安·奥森 Eric Christian Olsen
      内森·盖斯特 Nathan Geist
      安东尼·麦凯 Anthony Mackie
      McKay Stewart
      尼克·瑟西 Nick Searcy
      杰瑞·费拉拉 Jerry Ferrara
      杰米·马尔茨 Jamie Martz
      罗兰多·莫利纳 Rolando Molina
      鲍勃·莫里西 Bob Morrisey
      Nikki Giavasis
      Tom Townsend
      阿里·奥洛米 Ali Olomi
      克里斯托弗·裘德 Christopher Jude
      乔恩·李·布罗迪 Jon Lee Brody
      Robert Christopher Henderson
      大卫·希尔 David Hill
      Seth Miller
      J. Alec Holmes
      法希姆·法兹利 Fahim Fazli
      Stephen Bailey
      Josh Costell
      安维尔·乔卡亚 Enver Gjokaj
      Lorenzo Eduardo
      Michael Molthen
      妮可·帕隆 Nicol Paone
      雷纳·特奎拉 Leyna Nguyen
      David Rowden
      比尔·斯米托洛维奇 Bill Smitrovich
      莎伦泰 Sharon Tay
      Lesley Stahl
      Josh Todd
      玛德琳.石文顿 Madylin Sweeten
      Al Whiting
      Tony Flores
      Mike Dalager
      乔纳森·蔡斯 Jonathan Chase
      卡蒂嘉·佩维斯 Katija Pevec
      Jeff Albertson


◎简  介

  中东某地,美国军方的情报系统锁定了一名目标人物,总统不顾系统电脑运算出的建议处理方式,下令定点清除,由此引发了意外的连锁反应……公司小职员杰瑞(Shia LaBeouf 饰)的生活平淡乏味,时常手头拮据,连房租也成了问题,由于供职于军方的孪生兄弟意外过世,杰瑞赶回家中参加葬礼,但此行归来后,杰瑞发现家中居然堆满了武器,随即赶到的FBI破窗而入将他逮捕。与此同时,名叫蕾切尔(Michelle Monaghan 饰)的女人从大街上的电子广告牌上得知自己的儿子被某人绑架,绑架者拥有超乎寻常的能力,能够控制电子产品并监控一切。这名绑架者引导杰瑞摆脱FBI,最终上了蕾切尔的车,两名陌生人被迫合作,在FBI的追捕中落入了神秘绑架者的计划……究竟绑架者是谁?他又有何居心呢?

◎获奖情况

  第18届MTV电影奖 ?(2009)
  MTV电影奖最佳男演员(提名) 希亚·拉博夫

  第11届美国青少年选择奖 ?(2009)
  最佳动作冒险电影男演员(提名) 希亚·拉博夫


Media Info
General
Complete name : Eagle Eye.2008.WEB-DL 1080p.AI_UPSCALE_3840x2160_SDR_Finalalang.mkv
Format : Matroska
Format version : Version 4
File size : 54.8 GiB
Duration : 1 h 57 min
Overall bit rate : 66.8 Mb/s
Encoded date : UTC 2021-03-24 17:44:01
Writing application : mkvmerge v55.0.0 ('Waiting For Space') 64-bit
Writing library : libebml v1.4.2 + libmatroska v1.6.4
Cover : Yes
Attachments : cover.jpg

Video
ID : 1
Format : HEVC
Format/Info : High Efficiency Video Coding
Format profile : Main@L5.2@Main
Codec ID : V_MPEGH/ISO/HEVC
Duration : 1 h 57 min
Bit rate : 61.6 Mb/s
Width : 3 840 pixels
Height : 2 160 pixels
Display aspect ratio : 16:9
Frame rate mode : Constant
Frame rate : 23.976 (24000/1001) FPS
Color space : YUV
Chroma subsampling : 4:2:0
Bit depth : 8 bits
Bits/(Pixel*Frame) : 0.310
Stream size : 50.6 GiB (92%)
Language : English
Default : Yes
Forced : No

Audio #1
ID : 2
Format : AC-3
Format/Info : Audio Coding 3
Commercial name : Dolby Digital
Codec ID : A_AC3
Duration : 1 h 57 min
Bit rate mode : Constant
Bit rate : 640 kb/s
Channel(s) : 6 channels
Channel layout : L R C LFE Ls Rs
Sampling rate : 48.0 kHz
Frame rate : 31.250 FPS (1536 SPF)
Compression mode : Lossy
Stream size : 538 MiB (1%)
Title : DUB - Blu-ray CEE
Language : Russian
Service kind : Complete Main
Default : Yes
Forced : Yes

Audio #2
ID : 3
Format : AC-3
Format/Info : Audio Coding 3
Commercial name : Dolby Digital
Codec ID : A_AC3
Duration : 1 h 57 min
Bit rate mode : Constant
Bit rate : 448 kb/s
Channel(s) : 6 channels
Channel layout : L R C LFE Ls Rs
Sampling rate : 48.0 kHz
Frame rate : 31.250 FPS (1536 SPF)
Compression mode : Lossy
Stream size : 377 MiB (1%)
Title : MVO - Киномания
Language : Russian
Service kind : Complete Main
Default : No
Forced : No

Audio #3
ID : 4
Format : DTS
Format/Info : Digital Theater Systems
Codec ID : A_DTS
Duration : 1 h 57 min
Bit rate mode : Constant
Bit rate : 1 509 kb/s
Channel(s) : 6 channels
Channel layout : C L R Ls Rs LFE
Sampling rate : 48.0 kHz
Frame rate : 93.750 FPS (512 SPF)
Bit depth : 24 bits
Compression mode : Lossy
Stream size : 1.24 GiB (2%)
Title : AVO - А.Гаврилов
Language : Russian
Default : No
Forced : No

Audio #4
ID : 5
Format : AC-3
Format/Info : Audio Coding 3
Commercial name : Dolby Digital
Codec ID : A_AC3
Duration : 1 h 57 min
Bit rate mode : Constant
Bit rate : 640 kb/s
Channel(s) : 6 channels
Channel layout : L R C LFE Ls Rs
Sampling rate : 48.0 kHz
Frame rate : 31.250 FPS (1536 SPF)
Compression mode : Lossy
Stream size : 538 MiB (1%)
Title : AVO - Ю.Сербин
Language : Russian
Service kind : Complete Main
Default : No
Forced : No

Audio #5
ID : 6
Format : AC-3
Format/Info : Audio Coding 3
Commercial name : Dolby Digital
Codec ID : A_AC3
Duration : 1 h 57 min
Bit rate mode : Constant
Bit rate : 448 kb/s
Channel(s) : 6 channels
Channel layout : L R C LFE Ls Rs
Sampling rate : 48.0 kHz
Frame rate : 31.250 FPS (1536 SPF)
Compression mode : Lossy
Stream size : 377 MiB (1%)
Title : DUB - Ukrainian
Language : Ukrainian
Service kind : Complete Main
Default : No
Forced : No

Audio #6
ID : 7
Format : DTS
Format/Info : Digital Theater Systems
Codec ID : A_DTS
Duration : 1 h 57 min
Bit rate mode : Constant
Bit rate : 1 509 kb/s
Channel(s) : 6 channels
Channel layout : C L R Ls Rs LFE
Sampling rate : 48.0 kHz
Frame rate : 93.750 FPS (512 SPF)
Bit depth : 24 bits
Compression mode : Lossy
Stream size : 1.24 GiB (2%)
Title : English - Blu-ray CEE
Language : English
Default : No
Forced : No

Text #1
ID : 8
Format : UTF-8
Codec ID : S_TEXT/UTF8
Codec ID/Info : UTF-8 Plain Text
Duration : 1 h 26 min
Bit rate : 2 b/s
Count of elements : 24
Stream size : 1.28 KiB (0%)
Title : Russian Forced
Language : Russian
Default : Yes
Forced : Yes

Text #2
ID : 9
Format : UTF-8
Codec ID : S_TEXT/UTF8
Codec ID/Info : UTF-8 Plain Text
Duration : 1 h 49 min
Bit rate : 129 b/s
Count of elements : 1557
Stream size : 104 KiB (0%)
Title : Russian Full
Language : Russian
Default : No
Forced : No

Text #3
ID : 10
Format : UTF-8
Codec ID : S_TEXT/UTF8
Codec ID/Info : UTF-8 Plain Text
Duration : 1 h 35 min
Bit rate : 1 b/s
Count of elements : 21
Stream size : 1.17 KiB (0%)
Title : Ukrainian Forced
Language : Ukrainian
Default : No
Forced : No

Text #4
ID : 11
Format : UTF-8
Codec ID : S_TEXT/UTF8
Codec ID/Info : UTF-8 Plain Text
Duration : 1 h 49 min
Bit rate : 121 b/s
Count of elements : 1557
Stream size : 97.5 KiB (0%)
Title : Ukrainian Full
Language : Ukrainian
Default : No
Forced : No

Text #5
ID : 12
Format : UTF-8
Codec ID : S_TEXT/UTF8
Codec ID/Info : UTF-8 Plain Text
Duration : 1 h 49 min
Bit rate : 71 b/s
Count of elements : 1526
Stream size : 57.4 KiB (0%)
Title : English Full
Language : English
Default : No
Forced : No

Menu
00:00:00.000 : :Глава 01
00:05:00.000 : :Глава 02
00:10:00.000 : :Глава 03
00:15:00.000 : :Глава 04
00:20:00.000 : :Глава 05
00:25:00.000 : :Глава 06
00:30:00.000 : :Глава 07
00:35:00.000 : :Глава 08
00:40:00.000 : :Глава 09
00:45:00.000 : :Глава 10
00:50:00.000 : :Глава 11
00:55:00.000 : :Глава 12
01:00:00.000 : :Глава 13
01:05:00.000 : :Глава 14
01:10:00.000 : :Глава 15
01:15:00.000 : :Глава 16
01:20:00.000 : :Глава 17
01:25:00.000 : :Глава 18
01:30:00.000 : :Глава 19
01:35:00.000 : :Глава 20
01:40:00.000 : :Глава 21
01:45:00.000 : :Глава 22
01:50:00.000 : :Глава 23
01:55:00.000 : :Глава 24


首发4K蓝光REMUX俄版资源,无视迅雷下载软件,推荐使用qBittorrent等下载软件,有条件的推荐115更好的下载软件!
首发经典影片,有能力字幕爱好的发烧友,请联系本楼主


游客,如果您要查看本帖隐藏内容请回复


1心,爱心.gif
回复

使用道具 举报

1

主题

1469

帖子

4029

积分

4K家园VIP

Rank: 9Rank: 9Rank: 9

积分
4029
发表于 2021-3-26 10:47:20 | 显示全部楼层
你们要是有4K资源记得分享,别小气
回复 支持 反对

使用道具 举报

0

主题

3503

帖子

9830

积分

4K家园VIP

Rank: 9Rank: 9Rank: 9

积分
9830
发表于 2021-3-26 10:58:08 | 显示全部楼层
太好啦&萬分感謝版主的無私發佈分享%
回复 支持 反对

使用道具 举报

0

主题

281

帖子

2692

积分

4K家园VIP

Rank: 9Rank: 9Rank: 9

积分
2692
QQ
发表于 2021-3-26 11:09:19 | 显示全部楼层
谢谢楼主分享,辛苦了!
回复 支持 反对

使用道具 举报

0

主题

60

帖子

859

积分

新手上路

Rank: 1

积分
859
发表于 2021-3-26 12:57:37 | 显示全部楼层
这是什么东东
回复 支持 反对

使用道具 举报

0

主题

1

帖子

6

积分

新手上路

Rank: 1

积分
6
发表于 2021-3-26 15:01:54 | 显示全部楼层
鹰眼/鹰眼追击/Eagle Eye(2008)
回复 支持 反对

使用道具 举报

0

主题

4

帖子

15

积分

新手上路

Rank: 1

积分
15
发表于 2021-3-26 22:51:35 | 显示全部楼层
鹰眼/鹰眼追击
回复 支持 反对

使用道具 举报

0

主题

3

帖子

12

积分

新手上路

Rank: 1

积分
12
发表于 2021-3-27 00:14:51 | 显示全部楼层
谢谢楼主分享,辛苦了!
回复 支持 反对

使用道具 举报

41

主题

1381

帖子

3941

积分

4K家园VIP

Rank: 9Rank: 9Rank: 9

积分
3941
发表于 2021-3-27 11:38:09 来自手机 | 显示全部楼层
4K家园不错,希望这种资源越多越好
回复 支持 反对

使用道具 举报

0

主题

30

帖子

889

积分

新手上路

Rank: 1

积分
889
发表于 2021-3-28 02:42:04 | 显示全部楼层
谢谢分享!!!!!!!!!
回复

使用道具 举报

您需要登录后才可以回帖 登录 | 立即注册

本版积分规则

精彩图文
Archiver|手机版|TAG|Sitemap|新帖|专题|联系我们:邮箱: 4kjia.com@gmail.com   

4k家园   ©2019