[4K MV] 2021 TWICE -取决于你 4k [2160P /MP4/260MB

[复制链接]

2262

主题

2551

帖子

2万

积分

超级版主

Rank: 8Rank: 8

积分
21144
 楼主| 发表于 2021-4-1 12:09:30 | 显示全部楼层 |阅读模式
本帖最后由 叽里呱啦 于 2021-3-29 09:42 编辑

TWICE -取决于你 (TIME100 Talks Performance) 4k.mp4_20210326_123255.100.jpg TWICE -取决于你 (TIME100 Talks Performance) 4k.mp4_20210326_123309.579.jpg TWICE -取决于你 (TIME100 Talks Performance) 4k.mp4_20210326_123314.235.jpg TWICE -取决于你 (TIME100 Talks Performance) 4k.mp4_20210326_123320.203.jpg
General
Complete name                  : 2021 TWICE -取决于你 (TIME100 Talks Performance)  4k.mp4
Format                         : MPEG-4
Format profile                 : Base Media
Codec ID                       : isom (isom/iso2/avc1/mp41)
File size                      : 261 MiB
Duration                       : 3 min 22 s
Overall bit rate               : 10.8 Mb/s
Writing application            : Lavf58.12.100
exvr                           : EX1.8.2(C1.0.9)

Video
ID                             : 1
Format                         : AVC
Format/Info                    : Advanced Video Codec
Format profile                 : High@L5.1
Format settings                : CABAC / 4 Ref Frames
Format settings, CABAC         : Yes
Format settings, Reference fra : 4 frames
Codec ID                       : avc1
Codec ID/Info                  : Advanced Video Coding
Duration                       : 3 min 22 s
Bit rate                       : 10.6 Mb/s
Width                          : 3 840 pixels
Height                         : 2 160 pixels
Display aspect ratio           : 16:9
Frame rate mode                : Constant
Frame rate                     : 23.976 (23976/1000) FPS
Color space                    : YUV
Chroma subsampling             : 4:2:0
Bit depth                      : 8 bits
Scan type                      : Progressive
Bits/(Pixel*Frame)             : 0.053
Stream size                    : 256 MiB (98%)
Color range                    : Limited
Color primaries                : BT.709
Transfer characteristics       : BT.709
Matrix coefficients            : BT.709
Codec configuration box        : avcC

Audio
ID                             : 2
Format                         : AAC LC
Format/Info                    : Advanced Audio Codec Low Complexity
Codec ID                       : mp4a-40-2
Duration                       : 3 min 22 s
Duration_LastFrame             : -1 ms
Bit rate mode                  : Constant
Bit rate                       : 192 kb/s
Channel(s)                     : 2 channels
Channel layout                 : L R
Sampling rate                  : 48.0 kHz
Frame rate                     : 46.875 FPS (1024 SPF)
Compression mode               : Lossy
Stream size                    : 4.63 MiB (2%)
Default                        : Yes
Alternate group                : 1


提供更多(4K、8K)高品质MV、演示片等珍藏版视频,需要的联系本楼主。
网盘下载失效不补:链接: https://pan.baidu.com/s/1eoOMui6vMjD6em-_9wQCNA 提取码:
****此区域为收费内容****    需支付 15 金币后可查看立即购买


.

回复

使用道具 举报

48

主题

1375

帖子

3995

积分

4K家园VIP

Rank: 9Rank: 9Rank: 9

积分
3995
发表于 2021-4-1 12:09:35 来自手机 | 显示全部楼层
不错 支持下
回复 支持 反对

使用道具 举报

0

主题

1545

帖子

4147

积分

4K家园VIP

Rank: 9Rank: 9Rank: 9

积分
4147
发表于 2021-4-3 09:52:03 来自手机 | 显示全部楼层
都不知道说的啥
回复 支持 反对

使用道具 举报

0

主题

1100

帖子

3314

积分

4K家园VIP

Rank: 9Rank: 9Rank: 9

积分
3314
发表于 6 天前 | 显示全部楼层
支持你哈...................................
回复 支持 反对

使用道具 举报

0

主题

1171

帖子

3529

积分

4K家园VIP

Rank: 9Rank: 9Rank: 9

积分
3529
发表于 6 天前 | 显示全部楼层
高手啊
回复 支持 反对

使用道具 举报

0

主题

1

帖子

9

积分

新手上路

Rank: 1

积分
9
发表于 6 天前 | 显示全部楼层

-

The excellent message gallantly)))
[url=https://megaremont.pro/tambov-restavratsiya-vann]维修丙烯酸浴在诺金斯克[/ur
回复 支持 反对

使用道具 举报

42

主题

1378

帖子

3936

积分

4K家园VIP

Rank: 9Rank: 9Rank: 9

积分
3936
发表于 前天 20:09 | 显示全部楼层
哈哈,我只看看不说话
回复 支持 反对

使用道具 举报

您需要登录后才可以回帖 登录 | 立即注册

本版积分规则

精彩图文
Archiver|手机版|TAG|Sitemap|新帖|专题|联系我们:邮箱: 4kjia.com@gmail.com   

4k家园   ©2019