[4K MV] 2020 TREASURE - MMM [Bugs! 2160p] [2160P /MP4/1.04GB]

[复制链接]

2262

主题

2551

帖子

2万

积分

超级版主

Rank: 8Rank: 8

积分
21144
 楼主| 发表于 2021-3-26 12:49:36 | 显示全部楼层 |阅读模式
本帖最后由 叽里呱啦 于 2021-3-29 09:43 编辑

TREASURE - MMM [Bugs! 2160p].mp4_20210326_123928.859.jpg TREASURE - MMM [Bugs! 2160p].mp4_20210326_123936.611.jpg TREASURE - MMM [Bugs! 2160p].mp4_20210326_123949.307.jpg TREASURE - MMM [Bugs! 2160p].mp4_20210326_123953.587.jpg

General
Complete name                  : TREASURE - MMM [Bugs! 2160p].mp4
Format                         : MPEG-4
Format profile                 : Base Media / Version 2
Codec ID                       : mp42 (mp42/mp41)
File size                      : 1.05 GiB
Duration                       : 3 min 35 s
Overall bit rate mode          : Variable
Overall bit rate               : 41.7 Mb/s
Encoded date                   : UTC 2020-11-06 06:33:32
Tagged date                    : UTC 2020-11-06 06:33:47
TIM                            : 00:05:57:20
TSC                            : 24000
TSZ                            : 1001

Video
ID                             : 1
Format                         : AVC
Format/Info                    : Advanced Video Codec
Format profile                 : Main@L5.1
Format settings                : CABAC / 4 Ref Frames
Format settings, CABAC         : Yes
Format settings, Reference fra : 4 frames
Codec ID                       : avc1
Codec ID/Info                  : Advanced Video Coding
Duration                       : 3 min 35 s
Source duration                : 3 min 35 s
Bit rate                       : 41.4 Mb/s
Width                          : 3 840 pixels
Height                         : 2 160 pixels
Display aspect ratio           : 16:9
Frame rate mode                : Constant
Frame rate                     : 23.976 (24000/1001) FPS
Color space                    : YUV
Chroma subsampling             : 4:2:0
Bit depth                      : 8 bits
Scan type                      : Progressive
Bits/(Pixel*Frame)             : 0.208
Stream size                    : 1.04 GiB (99%)
Source stream size             : 1.04 GiB (99%)
Language                       : English
Encoded date                   : UTC 2020-11-06 06:33:32
Tagged date                    : UTC 2020-11-06 06:33:32
Color range                    : Limited
Color primaries                : BT.709
Transfer characteristics       : BT.709
Matrix coefficients            : BT.709
Codec configuration box        : avcC

Audio
ID                             : 2
Format                         : AAC LC
Format/Info                    : Advanced Audio Codec Low Complexity
Codec ID                       : mp4a-40-2
Duration                       : 3 min 35 s
Source duration                : 3 min 35 s
Bit rate mode                  : Variable
Bit rate                       : 317 kb/s
Maximum bit rate               : 454 kb/s
Channel(s)                     : 2 channels
Channel layout                 : L R
Sampling rate                  : 48.0 kHz
Frame rate                     : 46.875 FPS (1024 SPF)
Compression mode               : Lossy
Stream size                    : 8.16 MiB (1%)
Source stream size             : 8.16 MiB (1%)
Language                       : English
Encoded date                   : UTC 2020-11-06 06:33:32
Tagged date                    : UTC 2020-11-06 06:33:32


提供更多(4K、8K)高品质MV、演示片等珍藏版视频,需要的联系本楼主。
网盘下载失效不补:链接: https://pan.baidu.com/s/17YKEGoFrh5sAMm4EJv0DPQ 提取码:
****此区域为收费内容****    需支付 15 金币后可查看立即购买




.

回复

使用道具 举报

3

主题

1470

帖子

4004

积分

4K家园VIP

Rank: 9Rank: 9Rank: 9

积分
4004
发表于 2021-3-26 12:49:40 来自手机 | 显示全部楼层
楼猪V5啊
回复 支持 反对

使用道具 举报

56

主题

1322

帖子

3800

积分

4K家园VIP

Rank: 9Rank: 9Rank: 9

积分
3800
发表于 2021-3-27 14:49:57 | 显示全部楼层
我擦!我要沙发!
回复 支持 反对

使用道具 举报

0

主题

1195

帖子

3599

积分

4K家园VIP

Rank: 9Rank: 9Rank: 9

积分
3599
发表于 2021-3-28 05:19:14 | 显示全部楼层
楼下的接上
回复 支持 反对

使用道具 举报

47

主题

1437

帖子

4121

积分

4K家园VIP

Rank: 9Rank: 9Rank: 9

积分
4121
发表于 2021-3-28 11:45:31 | 显示全部楼层
我只是路过,不发表意见
回复 支持 反对

使用道具 举报

49

主题

1286

帖子

3690

积分

4K家园VIP

Rank: 9Rank: 9Rank: 9

积分
3690
发表于 2021-3-29 21:10:03 | 显示全部楼层
垃圾内容,路过为证。
回复 支持 反对

使用道具 举报

0

主题

413

帖子

1414

积分

注册会员

Rank: 2

积分
1414
发表于 4 天前 | 显示全部楼层
谢谢楼主分享
回复 支持 反对

使用道具 举报

0

主题

413

帖子

1414

积分

注册会员

Rank: 2

积分
1414
发表于 前天 22:07 | 显示全部楼层
谢谢楼主分享!
回复 支持 反对

使用道具 举报

您需要登录后才可以回帖 登录 | 立即注册

本版积分规则

精彩图文
Archiver|手机版|TAG|Sitemap|新帖|专题|联系我们:邮箱: 4kjia.com@gmail.com   

4k家园   ©2019