[4K MV] 2021 我们能再谈4k吗 [2160P /MP4/294MB]

[复制链接]

2263

主题

2552

帖子

2万

积分

超级版主

Rank: 8Rank: 8

积分
21158
 楼主| 发表于 2021-3-29 09:38:25 | 显示全部楼层 |阅读模式
本帖最后由 叽里呱啦 于 2021-3-29 09:55 编辑

PURPLE KISS - 我们能再谈4k吗.mp4_20210326_131306.547.jpg PURPLE KISS - 我们能再谈4k吗.mp4_20210326_131312.642.jpg PURPLE KISS - 我们能再谈4k吗.mp4_20210326_131322.530.jpg PURPLE KISS - 我们能再谈4k吗.mp4_20210326_131357.162.jpg

General
Complete name                  : MV\PURPLE KISS - 我们能再谈4k吗.mp4
Format                         : MPEG-4
Format profile                 : Base Media
Codec ID                       : isom (isom/iso2/avc1/mp41)
File size                      : 238 MiB
Duration                       : 3 min 34 s
Overall bit rate               : 9 302 kb/s
Writing application            : Lavf58.12.100
exvr                           : EX1.8.2(C1.0.9)

Video
ID                             : 1
Format                         : AVC
Format/Info                    : Advanced Video Codec
Format profile                 : High@L5.1
Format settings                : CABAC / 4 Ref Frames
Format settings, CABAC         : Yes
Format settings, Reference fra : 4 frames
Codec ID                       : avc1
Codec ID/Info                  : Advanced Video Coding
Duration                       : 3 min 34 s
Bit rate                       : 9 106 kb/s
Width                          : 3 840 pixels
Height                         : 2 160 pixels
Display aspect ratio           : 16:9
Frame rate mode                : Constant
Frame rate                     : 23.976 (23976/1000) FPS
Color space                    : YUV
Chroma subsampling             : 4:2:0
Bit depth                      : 8 bits
Scan type                      : Progressive
Bits/(Pixel*Frame)             : 0.046
Stream size                    : 233 MiB (98%)
Color range                    : Limited
Color primaries                : BT.709
Transfer characteristics       : BT.709
Matrix coefficients            : BT.709
Codec configuration box        : avcC

Audio
ID                             : 2
Format                         : AAC LC
Format/Info                    : Advanced Audio Codec Low Complexity
Codec ID                       : mp4a-40-2
Duration                       : 3 min 34 s
Bit rate mode                  : Constant
Bit rate                       : 192 kb/s
Channel(s)                     : 2 channels
Channel layout                 : L R
Sampling rate                  : 48.0 kHz
Frame rate                     : 46.875 FPS (1024 SPF)
Compression mode               : Lossy
Stream size                    : 4.92 MiB (2%)
Default                        : Yes
Alternate group                : 1

提供更多(4K、8K)高品质MV、演示片等珍藏版视频,需要的联系本楼主。
网盘下载失效不补:链接: https://pan.baidu.com/s/1j14eptB0P4xyp-_jezj1hw 提取码:
****此区域为收费内容****    需支付 15 金币后可查看立即购买




.

回复

使用道具 举报

1

主题

1362

帖子

3936

积分

4K家园VIP

Rank: 9Rank: 9Rank: 9

积分
3936
发表于 2021-3-29 09:38:30 | 显示全部楼层
发发呆,回回帖,工作结束~
回复 支持 反对

使用道具 举报

0

主题

2

帖子

13

积分

新手上路

Rank: 1

积分
13
发表于 2021-3-29 10:07:16 | 显示全部楼层
发发呆,回回帖,工作结束~
回复 支持 反对

使用道具 举报

2

主题

1050

帖子

3170

积分

4K家园VIP

Rank: 9Rank: 9Rank: 9

积分
3170
发表于 2021-3-29 11:23:30 | 显示全部楼层
在撸一遍。。。
回复 支持 反对

使用道具 举报

0

主题

1173

帖子

3345

积分

4K家园VIP

Rank: 9Rank: 9Rank: 9

积分
3345
发表于 2021-3-29 21:45:06 来自手机 | 显示全部楼层
为保住菊花,这个一定得回复!
回复 支持 反对

使用道具 举报

48

主题

1357

帖子

3899

积分

4K家园VIP

Rank: 9Rank: 9Rank: 9

积分
3899
发表于 2021-3-30 06:48:39 来自手机 | 显示全部楼层
看起来不错
回复 支持 反对

使用道具 举报

0

主题

8

帖子

30

积分

新手上路

Rank: 1

积分
30
发表于 2021-3-30 10:49:21 | 显示全部楼层
4kk4k4k4k4k4k4k
回复 支持 反对

使用道具 举报

0

主题

7

帖子

33

积分

新手上路

Rank: 1

积分
33
发表于 2021-3-30 19:39:32 | 显示全部楼层
看看一些什么,谢谢楼主分享。
回复 支持 反对

使用道具 举报

0

主题

1185

帖子

3437

积分

4K家园VIP

Rank: 9Rank: 9Rank: 9

积分
3437
发表于 2021-3-31 05:08:59 | 显示全部楼层
额.....这个可以有
回复 支持 反对

使用道具 举报

0

主题

418

帖子

1432

积分

注册会员

Rank: 2

积分
1432
发表于 5 天前 | 显示全部楼层
谢谢楼主分享
回复 支持 反对

使用道具 举报

您需要登录后才可以回帖 登录 | 立即注册

本版积分规则

精彩图文
Archiver|手机版|TAG|Sitemap|新帖|专题|联系我们:邮箱: 4kjia.com@gmail.com   

4k家园   ©2019