[4K UHD 蓝光原盘] BBC 纪录片《小巨人》(2014)4K蓝光Remux版本下载/大小20.57GB

  [复制链接]

2275

主题

2564

帖子

2万

积分

超级版主

Rank: 8Rank: 8

积分
21305
 楼主| 发表于 2021-3-30 10:59:25 | 显示全部楼层 |阅读模式
本帖最后由 叽里呱啦 于 2021-3-30 15:06 编辑

MV5BNDAyYzM5OTYtMmNkZi00NmM5LThlNTUtMjEwMGIwZjY0MWNjXkEyXkFqcGdeQXVyNjEyNDc2MDg@.jpg

◎译  名 小巨人
◎片  名 BBC. Tiny Giants
◎年  代 2014
◎产  地 英国
◎类  别 纪录片            
◎语  言 英语
◎上映日期 2021-02-28(英国)
◎IMDb评分 7.9/10 from 735 users
◎IMDb链接 https://www.imdb.com/title/tt3739614/?ref_=fn_al_tt_1
◎豆瓣评分  9.3/10 from 2938 users
◎豆瓣链接  https://movie.douban.com/subject/26278784/
◎单片时长  00:43:16
◎导  演  马克·布朗洛(Mark Brownlow)
◎编       剧: 迈克尔·冈顿 / 马克·布朗罗

◎剧情简介

       关于我们下面和周围发生的事情的简短描述。一只花栗鼠和一只小老鼠去冒险;它们成长并了解生活及其障碍。


General
Complete name                  : 2014 BBC. Tiny Giants BDRemux 2160p HDR [VO] [ENG] {RUS} {2xENG} (CHP).mkv
Format                         : Matroska
Format version                 : Version 4
File size                      : 20.6 GiB
Duration                       : 43 min 16 s
Overall bit rate mode          : Variable
Overall bit rate               : 68.1 Mb/s
Movie name                     : 2014 BBC. Tiny Giants
Encoded date                   : UTC 2021-03-25 14:36:50
Writing application            : mkvmerge v54.0.0 ('F Maj Pixie') 64-bit
Writing library                : libebml v1.4.2 + libmatroska v1.6.3
Cover                          : Yes
Attachments                    : cover.jpg

Video
ID                             : 1
ID in the original source medi : 4113 (0x1011)
Format                         : HEVC
Format/Info                    : High Efficiency Video Coding
Format profile                 : Main 10@L5.1@High
HDR format                     : SMPTE ST 2086, HDR10 compatible
Codec ID                       : V_MPEGH/ISO/HEVC
Duration                       : 43 min 16 s
Bit rate                       : 65.1 Mb/s
Width                          : 3 840 pixels
Height                         : 2 160 pixels
Display aspect ratio           : 16:9
Frame rate mode                : Constant
Frame rate                     : 23.976 (24000/1001) FPS
Color space                    : YUV
Chroma subsampling             : 4:2:0 (Type 2)
Bit depth                      : 10 bits
Bits/(Pixel*Frame)             : 0.327
Stream size                    : 19.7 GiB (96%)
Title                          : TTG
Language                       : English
Default                        : Yes
Forced                         : No
Color range                    : Limited
Color primaries                : BT.2020
Transfer characteristics       : PQ
Matrix coefficients            : BT.2020 non-constant
Mastering display color primar : BT.2020
Mastering display luminance    : min: 0.0050 cd/m2, max: 4000 cd/m2
Maximum Content Light Level    : 471 cd/m2
Maximum Frame-Average Light Le : 149 cd/m2
Original source medium         : Blu-ray

Audio #1
ID                             : 2
Format                         : AC-3
Format/Info                    : Audio Coding 3
Commercial name                : Dolby Digital
Codec ID                       : A_AC3
Duration                       : 43 min 16 s
Bit rate mode                  : Constant
Bit rate                       : 640 kb/s
Channel(s)                     : 6 channels
Channel layout                 : L R C LFE Ls Rs
Sampling rate                  : 48.0 kHz
Frame rate                     : 31.250 FPS (1536 SPF)
Compression mode               : Lossy
Stream size                    : 198 MiB (1%)
Title                          : VO Ash61
Language                       : Russian
Service kind                   : Complete Main
Default                        : Yes
Forced                         : No

Audio #2
ID                             : 3
ID in the original source medi : 4352 (0x1100)
Format                         : DTS XLL
Format/Info                    : Digital Theater Systems
Commercial name                : DTS-HD Master Audio
Codec ID                       : A_DTS
Duration                       : 43 min 16 s
Bit rate mode                  : Variable
Bit rate                       : 2 350 kb/s
Channel(s)                     : 6 channels
Channel layout                 : C L R Ls Rs LFE
Sampling rate                  : 48.0 kHz
Frame rate                     : 93.750 FPS (512 SPF)
Bit depth                      : 16 bits
Compression mode               : Lossless
Stream size                    : 727 MiB (3%)
Language                       : English
Default                        : No
Forced                         : No
Original source medium         : Blu-ray

Text #1
ID                             : 4
Format                         : UTF-8
Codec ID                       : S_TEXT/UTF8
Codec ID/Info                  : UTF-8 Plain Text
Duration                       : 41 min 34 s
Bit rate                       : 41 b/s
Count of elements              : 179
Stream size                    : 12.5 KiB (0%)
Title                          : Перевод - Ash61
Language                       : Russian
Default                        : No
Forced                         : No

Text #2
ID                             : 5
Format                         : UTF-8
Codec ID                       : S_TEXT/UTF8
Codec ID/Info                  : UTF-8 Plain Text
Duration                       : 40 min 34 s
Bit rate                       : 26 b/s
Count of elements              : 169
Stream size                    : 7.86 KiB (0%)
Language                       : English
Default                        : No
Forced                         : No

Text #3
ID                             : 6
Format                         : UTF-8
Codec ID                       : S_TEXT/UTF8
Codec ID/Info                  : UTF-8 Plain Text
Duration                       : 41 min 51 s
Bit rate                       : 33 b/s
Count of elements              : 305
Stream size                    : 10.1 KiB (0%)
Title                          : SDH
Language                       : English
Default                        : No
Forced                         : No

Menu
00:00:00.000                   : en:Chapter 01
00:11:38.030                   : en:Chapter 02
00:21:34.293                   : en:Chapter 03
00:31:04.028                   : en:Chapter 04


2014 BBC. Tiny Giants BDRemux 2160p HDR [VO] [ENG] {RUS} {2xENG} (CHP).mkv_20210.jpg 2014 BBC. Tiny Giants BDRemux 2160p HDR [VO] [ENG] {RUS} {2xENG} (CHP).mkv_20210.jpg 2014 BBC. Tiny Giants BDRemux 2160p HDR [VO] [ENG] {RUS} {2xENG} (CHP).mkv_20210.jpg 2014 BBC. Tiny Giants BDRemux 2160p HDR [VO] [ENG] {RUS} {2xENG} (CHP).mkv_20210.jpg 2014 BBC. Tiny Giants BDRemux 2160p HDR [VO] [ENG] {RUS} {2xENG} (CHP).mkv_20210.jpg 2014 BBC. Tiny Giants BDRemux 2160p HDR [VO] [ENG] {RUS} {2xENG} (CHP).mkv_20210.jpg 2014 BBC. Tiny Giants BDRemux 2160p HDR [VO] [ENG] {RUS} {2xENG} (CHP).mkv_20210.jpg 2014 BBC. Tiny Giants BDRemux 2160p HDR [VO] [ENG] {RUS} {2xENG} (CHP).mkv_20210.jpg



游客,如果您要查看本帖隐藏内容请回复




.
回复

使用道具 举报

55

主题

1340

帖子

3874

积分

4K家园VIP

Rank: 9Rank: 9Rank: 9

积分
3874
发表于 2021-3-30 10:59:30 来自手机 | 显示全部楼层
啥玩应呀
回复 支持 反对

使用道具 举报

0

主题

3686

帖子

1万

积分

4K家园VIP

Rank: 9Rank: 9Rank: 9

积分
10133
发表于 2021-3-30 11:05:09 | 显示全部楼层
太好啦&萬分感謝版主的無私發佈分享%
回复 支持 反对

使用道具 举报

0

主题

1

帖子

10

积分

新手上路

Rank: 1

积分
10
发表于 2021-3-30 14:47:38 | 显示全部楼层
好看
回复

使用道具 举报

1

主题

1396

帖子

4036

积分

4K家园VIP

Rank: 9Rank: 9Rank: 9

积分
4036
发表于 2021-3-30 17:49:24 | 显示全部楼层
楼猪辛苦了,支持一下分享好资源
回复 支持 反对

使用道具 举报

0

主题

3

帖子

12

积分

新手上路

Rank: 1

积分
12
发表于 2021-3-30 21:21:15 来自手机 | 显示全部楼层
666666666666
回复 支持 反对

使用道具 举报

0

主题

3

帖子

12

积分

新手上路

Rank: 1

积分
12
发表于 2021-3-30 21:21:22 来自手机 | 显示全部楼层
666666666666
回复 支持 反对

使用道具 举报

0

主题

15

帖子

64

积分

新手上路

Rank: 1

积分
64
发表于 2021-3-31 12:12:06 | 显示全部楼层
BBC 纪录片《小巨人》(2014)4K蓝光Remux版本下载/大小20.57GB [修改]
回复 支持 反对

使用道具 举报

0

主题

53

帖子

153

积分

新手上路

Rank: 1

积分
153
发表于 2021-3-31 20:58:34 | 显示全部楼层
下载收藏,谢谢分享
回复 支持 反对

使用道具 举报

0

主题

25

帖子

83

积分

新手上路

Rank: 1

积分
83
发表于 2021-4-2 08:37:39 | 显示全部楼层

Where is Administration 4kjia.com?

Where is moderator??
I'ts important.
Byu.
回复 支持 反对

使用道具 举报

您需要登录后才可以回帖 登录 | 立即注册

本版积分规则

精彩图文
Archiver|手机版|TAG|Sitemap|新帖|专题|联系我们:邮箱: 4kjia.com@gmail.com   

4k家园   ©2019