[4K MV] 2021 Weeekly - 放学后 (Board Shop Director's Cut) [2160P /MP4/452MB]

[复制链接]

2262

主题

2551

帖子

2万

积分

超级版主

Rank: 8Rank: 8

积分
21144
 楼主| 发表于 2021-3-30 21:30:48 | 显示全部楼层 |阅读模式
本帖最后由 叽里呱啦 于 2021-4-10 15:55 编辑

Weeekly - 放学后 (Board Shop Director's Cut) 4k (1).jpg Weeekly - 放学后 (Board Shop Director's Cut) 4k (2).jpg Weeekly - 放学后 (Board Shop Director's Cut) 4k (3).jpg Weeekly - 放学后 (Board Shop Director's Cut) 4k (4).jpg Weeekly - 放学后 (Board Shop Director's Cut) 4k (5).jpg Weeekly - 放学后 (Board Shop Director's Cut) 4k (6).jpg

General
Format                         : MPEG-4
Format profile                 : Base Media
Codec ID                       : isom (isom/iso2/avc1/mp41)
File size                      : 452 MiB
Duration                       : 3 min 28 s
Overall bit rate               : 18.2 Mb/s
Writing application            : Lavf58.12.100
exvr                           : EX1.8.2(C1.0.9)

Video
ID                             : 1
Format                         : AVC
Format/Info                    : Advanced Video Codec
Format profile                 : High@L5.1
Format settings                : CABAC / 4 Ref Frames
Format settings, CABAC         : Yes
Format settings, Reference fra : 4 frames
Codec ID                       : avc1
Codec ID/Info                  : Advanced Video Coding
Duration                       : 3 min 28 s
Bit rate                       : 18.0 Mb/s
Width                          : 3 840 pixels
Height                         : 2 160 pixels
Display aspect ratio           : 16:9
Frame rate mode                : Constant
Frame rate                     : 23.976 (23976/1000) FPS
Color space                    : YUV
Chroma subsampling             : 4:2:0
Bit depth                      : 8 bits
Scan type                      : Progressive
Bits/(Pixel*Frame)             : 0.091
Stream size                    : 448 MiB (99%)
Color range                    : Limited
Color primaries                : BT.709
Transfer characteristics       : BT.709
Matrix coefficients            : BT.709
Codec configuration box        : avcC

Audio
ID                             : 2
Format                         : AAC LC
Format/Info                    : Advanced Audio Codec Low Complexity
Codec ID                       : mp4a-40-2
Duration                       : 3 min 28 s
Duration_LastFrame             : -1 ms
Bit rate mode                  : Constant
Bit rate                       : 192 kb/s
Channel(s)                     : 2 channels
Channel layout                 : L R
Sampling rate                  : 48.0 kHz
Frame rate                     : 46.875 FPS (1024 SPF)
Compression mode               : Lossy
Stream size                    : 4.77 MiB (1%)
Default                        : Yes
Alternate group                : 1


告知:下载后请用4K HDR电视上观看才能体验最佳效果!

提供更多【4K、8K、16K(25-120fps)】高品质MV、演示片等珍藏版视频,需要的联系本楼主。

新种资源请使用utorrent,qBittorrent,transmission等等BT软件下载!以获得最快下载速度,需要更快荐115更好的下载软件!

新作种子免金币下载:
Weeekly - 放学后 (Board Shop Director's Cut) 4k www.4kjia.com.torrent (27.06 KB)

Weeekly - 放学后 (Board Shop Director's Cut) 4k (Board Shop Director's.torrent

27.06 KB, 下载次数: 0, 下载积分: 金币 -10

回复

使用道具 举报

42

主题

1378

帖子

3936

积分

4K家园VIP

Rank: 9Rank: 9Rank: 9

积分
3936
发表于 2021-3-30 21:30:53 | 显示全部楼层
你们要是有4K资源记得分享,别小气
回复 支持 反对

使用道具 举报

0

主题

3503

帖子

9830

积分

4K家园VIP

Rank: 9Rank: 9Rank: 9

积分
9830
发表于 2021-3-30 21:32:16 | 显示全部楼层
太好啦&萬分感謝版主的無私發佈分享%
回复 支持 反对

使用道具 举报

40

主题

1360

帖子

3898

积分

4K家园VIP

Rank: 9Rank: 9Rank: 9

积分
3898
发表于 2021-3-31 05:27:50 | 显示全部楼层
我也是坐沙发的
回复 支持 反对

使用道具 举报

1

主题

1267

帖子

3637

积分

4K家园VIP

Rank: 9Rank: 9Rank: 9

积分
3637
发表于 2021-3-31 09:15:36 | 显示全部楼层
差评
回复 支持 反对

使用道具 举报

0

主题

1175

帖子

3537

积分

4K家园VIP

Rank: 9Rank: 9Rank: 9

积分
3537
发表于 2021-3-31 15:06:25 | 显示全部楼层
秀起来~
回复 支持 反对

使用道具 举报

37

主题

1365

帖子

3873

积分

4K家园VIP

Rank: 9Rank: 9Rank: 9

积分
3873
发表于 2021-3-31 19:31:24 | 显示全部楼层
试试看吧
回复 支持 反对

使用道具 举报

0

主题

413

帖子

1414

积分

注册会员

Rank: 2

积分
1414
发表于 4 天前 | 显示全部楼层
谢谢楼主分享
回复 支持 反对

使用道具 举报

0

主题

413

帖子

1414

积分

注册会员

Rank: 2

积分
1414
发表于 前天 22:02 | 显示全部楼层
谢谢楼主分享!
回复 支持 反对

使用道具 举报

您需要登录后才可以回帖 登录 | 立即注册

本版积分规则

精彩图文
Archiver|手机版|TAG|Sitemap|新帖|专题|联系我们:邮箱: 4kjia.com@gmail.com   

4k家园   ©2019