[4K电影] 迷镇凶案/Suburbicon‎(2017)4K高清下载/大小13.68GB

[复制链接]

411

主题

425

帖子

4095

积分

4K家园VIP

Rank: 9Rank: 9Rank: 9

积分
4095
 楼主| 发表于 2021-3-31 11:04:16 | 显示全部楼层 |阅读模式
本帖最后由 最爱4K哟 于 2021-3-31 12:28 编辑

QQ图片20210331110149_副本.jpg

◎译  名 迷镇凶案 / 坚离地死人劫案(港) / 完美社区谋杀案(台) / 小镇郊区 / 迷镇
◎片  名 Suburbicon
◎年  代 2017
◎产  地 美国 / 英国
◎类  别 喜剧 / 悬疑 / 犯罪
◎语  言 英语
◎上映日期 2017-09-02(威尼斯电影节) / 2017-10-27(美国) / 2018-01-12(中国大陆)
◎IMDb评分 5.7/10 from 38562 users
◎IMDb链接 https://www.imdb.com/title/tt0491175
◎豆瓣评分 6.2/10 from 20143 users
◎豆瓣链接 https://movie.douban.com/subject/2133433/
◎片  长 104分钟
◎导  演 乔治·克鲁尼 George Clooney
◎编  剧 乔尔·科恩 Joel Coen / 伊桑·科恩 Ethan Coen / 乔治·克鲁尼 George Clooney / 格兰特·赫斯洛夫 Grant Heslov
◎主  演 马特·达蒙 Matt Damon
      朱丽安·摩尔 Julianne Moore
      奥斯卡·伊萨克 Oscar Isaac
      诺亚·尤佩 Noah Jupe
      托尼·埃斯皮诺萨 Tony Espinosa
      格伦·弗莱舍尔 Glenn Fleshler
      梅根·弗格森 Megan Ferguson
      杰克·康利 Jack Conley
      迈克尔·D·科恩 Michael D. Cohen
      黛安·德恩 Diane Dehn
      盖里·巴萨拉巴 Gary Basaraba
      斯蒂夫·蒙罗埃 Steve Monroe
      阿历克斯·哈赛尔 Alex Hassell
      利斯·M·伯克 Leith M. Burke
      克里麦·威斯特博克 Karimah Westbrook
      霍普·班克斯 Hope Banks
      罗伯特·皮尔斯 Robert Pierce
      文斯·切法卢 Vince Cefalu
      达什·威廉姆斯 Dash Williams
      加文·怀尔德 Gavin Wilde
      兰登·戈登 Landon Gordon
      蒂姆·聂夫 Tim Neff
      马拉·费尔克拉夫 Marah Fairclough
      艾米丽·高斯 Emily Goss
      艾瑞克·奥德 Erik Aude



◎简  介

  20世纪50年代僻静的家乡小镇,中年男子加德纳(马特·达蒙 饰)的妻子在家中被杀害。由此宁静的生活被打破,引发出一连串勒索、骗保、迷情事件。而对面邻居搬来了一家黑人,又因此打破了整个小镇的宁静。家庭危机和小镇危机交织在了一起……

◎获奖情况

  第74届威尼斯电影节(2017)
  主竞赛单元 金狮奖 (提名) 乔治·克鲁尼

Video
ID : 1
Format : HEVC
Format/Info : High Efficiency Video Coding
Format profile : Main@L5@Main
Codec ID : V_MPEGH/ISO/HEVC
Duration : 1 h 45 min
Bit rate : 14.8 Mb/s
Width : 3 840 pixels
Height : 2 160 pixels
Display aspect ratio : 16:9
Frame rate mode : Constant
Frame rate : 23.976 (24000/1001) FPS
Color space : YUV
Chroma subsampling : 4:2:0
Bit depth : 8 bits
Bits/(Pixel*Frame) : 0.075
Stream size : 10.9 GiB (80%)
Writing library : x265 2.0+16-215eedc9ecc0:[Linux][GCC 4.4.7][64 bit] 8bit
Encoding settings : wpp / ctu=64 / min-cu-size=8 / max-tu-size=32 / tu-intra-depth=1 / tu-inter-depth=1 / me=2 / subme=3 / merange=64 / rect / no-amp / max-merge=3 / temporal-mvp / no-early-skip / no-rskip / rdpenalty=0 / no-tskip / no-tskip-fast / strong-intra-smoothing / no-lossless / no-cu-lossless / no-constrained-intra / no-fast-intra / no-open-gop / no-temporal-layers / interlace=0 / keyint=48 / min-keyint=4 / scenecut=0 / rc-lookahead=80 / lookahead-slices=4 / bframes=4 / bframe-bias=0 / b-adapt=2 / ref=3 / limit-refs=3 / limit-modes / weightp / no-weightb / aq-mode=0 / qg-size=32 / aq-strength=0.00 / cbqpoffs=0 / crqpoffs=0 / rd=4 / psy-rd=4.00 / rdoq-level=2 / psy-rdoq=10.00 / log2-max-poc-lsb=8 / no-rd-refine / signhide / deblock=0:0 / no-sao / no-sao-non-deblock / b-pyramid / no-cutree / no-intra-refresh / rc=abr / bitrate=15000 / qcomp=0.60 / qpmin=0 / qpmax=69 / qpstep=1 / vbv-maxrate=22500 / vbv-bufsize=22500 / ipratio=1.10 / pbratio=1.00
Default : Yes
Forced : No
Color range : Limited
Color primaries : BT.709
Transfer characteristics : BT.709
Matrix coefficients : BT.709

Audio #1
ID : 2
Format : DTS XLL
Format/Info : Digital Theater Systems
Commercial name : DTS-HD Master Audio
Codec ID : A_DTS
Duration : 1 h 45 min
Bit rate mode : Variable
Bit rate : 3 560 kb/s
Channel(s) : 6 channels
Channel layout : C L R Ls Rs LFE
Sampling rate : 48.0 kHz
Frame rate : 93.750 FPS (512 SPF)
Bit depth : 24 bits
Compression mode : Lossless
Delay relative to video : 1 ms
Stream size : 2.61 GiB (19%)
Title : DTS-HD MA 5.1
Language : English
Default : Yes
Forced : No

Audio #2
ID : 3
Format : E-AC-3
Format/Info : Enhanced AC-3
Commercial name : Dolby Digital Plus
Codec ID : A_EAC3
Duration : 1 h 45 min
Bit rate mode : Constant
Bit rate : 256 kb/s
Channel(s) : 6 channels
Channel layout : L R C LFE Ls Rs
Sampling rate : 48.0 kHz
Frame rate : 31.250 FPS (1536 SPF)
Compression mode : Lossy
Stream size : 192 MiB (1%)
Title : English
Language : English
Service kind : Complete Main
Default : No
Forced : No

Text
ID : 4
Format : UTF-8
Codec ID : S_TEXT/UTF8
Codec ID/Info : UTF-8 Plain Text
Duration : 1 h 35 min
Bit rate : 61 b/s
Count of elements : 1424
Stream size : 42.8 KiB (0%)
Title : English
Language : English
Default : Yes
Forced : No

Menu
00:00:00.000 : en:00:00:00.000
00:04:50.165 : en:00:04:50.165
00:15:11.452 : en:00:15:11.452
00:23:09.305 : en:00:23:09.305
00:33:08.612 : en:00:33:08.612
00:39:36.916 : en:00:39:36.916
00:44:29.125 : en:00:44:29.125
00:49:19.540 : en:00:49:19.540
00:56:36.560 : en:00:56:36.560
01:05:06.778 : en:01:05:06.778
01:14:14.283 : en:01:14:14.283
01:23:46.855 : en:01:23:46.855
01:27:54.352 : en:01:27:54.352
01:33:47.914 : en:01:33:47.914
01:37:15.204 : en:01:37:15.204

05163550363832187472_thumb.png 68676489071925896845_thumb.png 97458673771365825839_thumb.png


游客,如果您要查看本帖隐藏内容请回复



.
回复

使用道具 举报

1

主题

1452

帖子

3958

积分

4K家园VIP

Rank: 9Rank: 9Rank: 9

积分
3958
发表于 2021-3-31 11:04:35 | 显示全部楼层
为了三千积分!
回复 支持 反对

使用道具 举报

0

主题

3512

帖子

9852

积分

4K家园VIP

Rank: 9Rank: 9Rank: 9

积分
9852
发表于 2021-3-31 11:18:12 | 显示全部楼层
太好啦&萬分感謝版主的無私發佈分享%
回复 支持 反对

使用道具 举报

1

主题

1263

帖子

3803

积分

4K家园VIP

Rank: 9Rank: 9Rank: 9

积分
3803
发表于 4 天前 | 显示全部楼层
哈哈,我只看看不说话
回复 支持 反对

使用道具 举报

0

主题

1185

帖子

3437

积分

4K家园VIP

Rank: 9Rank: 9Rank: 9

积分
3437
发表于 半小时前 | 显示全部楼层
有空一起交流一下
回复 支持 反对

使用道具 举报

您需要登录后才可以回帖 登录 | 立即注册

本版积分规则

精彩图文
Archiver|手机版|TAG|Sitemap|新帖|专题|联系我们:邮箱: 4kjia.com@gmail.com   

4k家园   ©2019