[4K电影] 佛罗里达乐园/The Florida Project(2017)4K高清下载/大小14.30GB

[复制链接]

426

主题

441

帖子

4236

积分

4K家园VIP

Rank: 9Rank: 9Rank: 9

积分
4236
 楼主| 发表于 2021-3-31 11:58:04 | 显示全部楼层 |阅读模式
本帖最后由 最爱4K哟 于 2021-3-31 12:29 编辑

QQ图片20210331115117_副本.jpg

◎译  名 佛罗里达乐园/佛罗里达公租乐事/佛罗里达工程/佛罗里达廉租房/佛罗里达计划/佛罗里达贫民区/佛罗里达项目/欢迎光临奇幻城堡(台)/欢迎光临梦幻乐园(港)/迪士尼的夏天
◎片  名 The Florida Project
◎年  代 2017
◎产  地 美国
◎类  别 剧情 / 儿童
◎语  言 英语
◎上映日期 2017-05-22(戛纳电影节) / 2017-10-06(美国)
◎IMDb评分 7.6/10 from 90205 users
◎IMDb链接 https://www.imdb.com/title/tt5649144/
◎豆瓣评分 8.1/10 from 84471 users
◎豆瓣链接 https://movie.douban.com/subject/26778790/
◎片  长 111分钟
◎导  演 肖恩·贝克 Sean Baker
◎编  剧 肖恩·贝克 Sean Baker / 克里斯·贝格齐 Chris Bergoch
◎主  演 布鲁克琳·普林斯 Brooklynn Prince
      布丽娅·维纳特 Bria Vinaite
      威廉·达福 Willem Dafoe
      克里斯托弗·里维拉 Christopher Rivera
      梅拉·穆德 Mela Murder
      瓦莱丽亚·科托 Valeria Cotto
      乔希·奥利沃 Josie Olivo
      艾登·马利克 Aiden Malik
      爱德华·帕根 Edward Pagan
      卡赖伯·兰德里·琼斯 Caleb Landry Jones
      克里斯托·尼科尔·沃茨 Krystal Nicole Watts
      桑迪·凯恩 Sandy Kane
      吉姆·R·科曼 Jim R. Coleman
      安德鲁·罗马诺 Andrew Romano
      卡罗丽娜·格拉波瓦 Carolina Grabova
      特里·艾伦·琼斯 Terry Allen Jones
      卡伦·卡拉古利安 Karren Karagulian
      邹时擎 Shih-Ching Tsou
      祖普·卡塔纳 Joop Katana
      梅肯·布莱尔 Macon Blair
      卡尔·布拉德菲尔德 Carl Bradfield

◎标  签 儿童 | 美国 | 成长 | 社会 | 剧情 | 独立电影 | 2017 | 人性

◎简  介

  本片描述了几个六岁左右的孩子的暑假憧憬,而守护着他们阳光般笑容的大人们实则每天在为生活拼搏。

◎获奖情况

  第90届奥斯卡金像奖 ?(2018)
  最佳男配角(提名) 威廉·达福

  第70届戛纳电影节 ?(2017)
  导演双周单元(提名) 肖恩·贝克

  第75届金球奖 ?(2018)
  电影类最佳男配角(提名) 威廉·达福

  第71届英国电影学院奖 ?(2018)
  电影奖最佳男配角(提名) 威廉·达福

  第24届美国演员工会奖 ?(2018)
  电影奖最佳男配角(提名) 威廉·达福

  第83届纽约影评人协会奖 ?(2017)
  最佳导演 肖恩·贝克
  最佳男配角 威廉·达福

  第89届美国国家评论协会奖 ?(2017)
  最佳男配角 威廉·达福
  年度佳片

  第23届美国评论家选择电影奖 ?(2018)
  最佳影片(提名)
  最佳男配角(提名) 威廉·达福
  最佳青少年演员 布鲁克琳·普林斯

  第33届美国独立精神奖 ?(2018)
  最佳影片(提名)
  最佳导演(提名) 肖恩·贝克

  第20届英国独立电影奖 ?(2017)
  最佳外国独立电影(提名)

  第27届哥谭独立电影奖 ?(2017)
  最佳影片(提名)
  最佳男演员(提名) 威廉·达福
  年度突破演员(提名) 布鲁克琳·普林斯

  第18届美国电影学会奖 ?(2017)
  年度佳片

  第22届金卫星奖 ?(2018)
  电影部门最佳导演(提名) 肖恩·贝克
  电影部门最佳男配角(提名) 威廉·达福
  电影部门最佳原创剧本(提名) 肖恩·贝克?/?克里斯·贝格齐

  第52届美国国家影评人协会奖 ?(2018)
  最佳男配角 威廉·达福
  最佳摄影(提名) 亚历克西斯·泽贝

  第16届华盛顿影评人协会奖 ?(2017)
  最佳青少年表演 布鲁克琳·普林斯

  第38届波士顿影评人协会奖 ?(2017)
  最佳男配角 威廉·达福

  第43届洛杉矶影评人协会奖 ?(2017)
  最佳男配角 威廉·达福

  第30届芝加哥影评人协会奖 ?(2017)
  最佳男配角 威廉·达福
  最佳摄影(提名) 亚历克西斯·泽贝
  最佳剪辑(提名) 肖恩·贝克
  最具潜力演员(提名) 布丽娅·维纳特?/?布鲁克琳·普林斯

  第21届美国在线影评人协会奖 ?(2017)
  最佳影片(提名)
  最佳突破表演(提名) 布鲁克琳·普林斯

  第4届豆瓣电影年度榜单 ?(2017)
  2017-2018北美颁奖季热门佳片(提名)

Video
ID : 1
Format : HEVC
Format/Info : High Efficiency Video Coding
Format profile : Main@L5@Main
Codec ID : V_MPEGH/ISO/HEVC
Duration : 1 h 51 min
Bit rate : 14.9 Mb/s
Width : 3 840 pixels
Height : 2 160 pixels
Display aspect ratio : 16:9
Frame rate mode : Constant
Frame rate : 24.000 FPS
Color space : YUV
Chroma subsampling : 4:2:0
Bit depth : 8 bits
Bits/(Pixel*Frame) : 0.075
Stream size : 11.6 GiB (81%)
Writing library : x265 2.0+16-215eedc9ecc0:[Linux][GCC 4.4.7][64 bit] 8bit
Encoding settings : wpp / ctu=64 / min-cu-size=8 / max-tu-size=32 / tu-intra-depth=1 / tu-inter-depth=1 / me=2 / subme=3 / merange=64 / rect / no-amp / max-merge=3 / temporal-mvp / no-early-skip / no-rskip / rdpenalty=0 / no-tskip / no-tskip-fast / strong-intra-smoothing / no-lossless / no-cu-lossless / no-constrained-intra / no-fast-intra / no-open-gop / no-temporal-layers / interlace=0 / keyint=48 / min-keyint=4 / scenecut=0 / rc-lookahead=80 / lookahead-slices=4 / bframes=4 / bframe-bias=0 / b-adapt=2 / ref=3 / limit-refs=3 / limit-modes / weightp / no-weightb / aq-mode=0 / qg-size=32 / aq-strength=0.00 / cbqpoffs=0 / crqpoffs=0 / rd=4 / psy-rd=4.00 / rdoq-level=2 / psy-rdoq=10.00 / log2-max-poc-lsb=8 / no-rd-refine / signhide / deblock=0:0 / no-sao / no-sao-non-deblock / b-pyramid / no-cutree / no-intra-refresh / rc=abr / bitrate=15000 / qcomp=0.60 / qpmin=0 / qpmax=69 / qpstep=1 / vbv-maxrate=22500 / vbv-bufsize=22500 / ipratio=1.10 / pbratio=1.00
Language : English
Default : Yes
Forced : No
Color range : Limited
Color primaries : BT.709
Transfer characteristics : BT.709
Matrix coefficients : BT.709

Audio #1
ID : 2
Format : DTS XLL
Format/Info : Digital Theater Systems
Commercial name : DTS-HD Master Audio
Codec ID : A_DTS
Duration : 1 h 51 min
Bit rate mode : Variable
Bit rate : 3 220 kb/s
Channel(s) : 6 channels
Channel layout : C L R Ls Rs LFE
Sampling rate : 48.0 kHz
Frame rate : 93.750 FPS (512 SPF)
Bit depth : 24 bits
Compression mode : Lossless
Stream size : 2.51 GiB (18%)
Title : DTS-HD MA 5.1
Language : English
Default : Yes
Forced : No

Audio #2
ID : 3
Format : E-AC-3
Format/Info : Enhanced AC-3
Commercial name : Dolby Digital Plus
Codec ID : A_EAC3
Duration : 1 h 51 min
Bit rate mode : Constant
Bit rate : 256 kb/s
Channel(s) : 6 channels
Channel layout : L R C LFE Ls Rs
Sampling rate : 48.0 kHz
Frame rate : 31.250 FPS (1536 SPF)
Compression mode : Lossy
Stream size : 204 MiB (1%)
Title : English
Language : English
Service kind : Complete Main
Default : No
Forced : No

Text
ID : 4
Format : UTF-8
Codec ID : S_TEXT/UTF8
Codec ID/Info : UTF-8 Plain Text
Duration : 1 h 51 min
Bit rate : 72 b/s
Count of elements : 1743
Stream size : 58.7 KiB (0%)
Title : English
Language : English
Default : Yes
Forced : No

53467674569524633451_thumb.jpg 60353004311116028144_thumb.jpg 70021381190453226016_thumb.jpg



游客,如果您要查看本帖隐藏内容请回复




.

回复

使用道具 举报

1

主题

1229

帖子

3529

积分

4K家园VIP

Rank: 9Rank: 9Rank: 9

积分
3529
发表于 2021-3-31 11:58:16 | 显示全部楼层
专业抢沙发的!哈哈
回复 支持 反对

使用道具 举报

1

主题

1216

帖子

3664

积分

4K家园VIP

Rank: 9Rank: 9Rank: 9

积分
3664
发表于 2021-3-31 19:53:55 | 显示全部楼层
前排支持下了哦~
回复 支持 反对

使用道具 举报

0

主题

32

帖子

4625

积分

中级会员

Rank: 4

积分
4625
发表于 2021-4-1 08:29:10 | 显示全部楼层
感谢分享
回复

使用道具 举报

0

主题

3686

帖子

1万

积分

4K家园VIP

Rank: 9Rank: 9Rank: 9

积分
10133
发表于 2021-4-1 09:20:56 | 显示全部楼层
太好啦&萬分感謝版主的無私發佈分享%
回复 支持 反对

使用道具 举报

48

主题

1370

帖子

3912

积分

4K家园VIP

Rank: 9Rank: 9Rank: 9

积分
3912
发表于 2021-4-2 12:14:07 | 显示全部楼层
支持你哈...................................
回复 支持 反对

使用道具 举报

0

主题

4

帖子

15

积分

新手上路

Rank: 1

积分
15
发表于 2021-4-3 09:41:47 来自手机 | 显示全部楼层
谢谢!
回复

使用道具 举报

0

主题

1472

帖子

3996

积分

4K家园VIP

Rank: 9Rank: 9Rank: 9

积分
3996
发表于 2021-4-4 22:55:20 | 显示全部楼层
路过 帮顶 嘿嘿
回复 支持 反对

使用道具 举报

0

主题

45

帖子

123

积分

新手上路

Rank: 1

积分
123
发表于 2021-4-7 07:09:28 | 显示全部楼层
谢谢分享好资源!
回复 支持 反对

使用道具 举报

4

主题

1550

帖子

4284

积分

4K家园VIP

Rank: 9Rank: 9Rank: 9

积分
4284
发表于 3 天前 来自手机 | 显示全部楼层
为了三千积分!
回复 支持 反对

使用道具 举报

您需要登录后才可以回帖 登录 | 立即注册

本版积分规则

精彩图文
Archiver|手机版|TAG|Sitemap|新帖|专题|联系我们:邮箱: 4kjia.com@gmail.com   

4k家园   ©2019