[4K电影] [4K首发资源]有求必应日/Yes Day(2021)4K高清下载/大小11.29GB

[复制链接]

409

主题

423

帖子

4076

积分

4K家园VIP

Rank: 9Rank: 9Rank: 9

积分
4076
 楼主| 发表于 2021-3-31 12:22:40 | 显示全部楼层 |阅读模式
本帖最后由 最爱4K哟 于 2021-3-31 12:43 编辑

p2632772050.webp_副本.jpg

◎译  名 有求必应日/今天都听你的
◎片  名 Yes Day
◎年  代 2021
◎产  地 美国
◎类  别 喜剧
◎语  言 英语
◎上映日期 2021-03-12(美国)
◎IMDb链接 https://www.imdb.com/title/tt8521876/
◎豆瓣评分 6.0/10 from 794 users
◎豆瓣链接 https://movie.douban.com/subject/30242905/
◎导  演 米盖尔·阿尔特塔 Miguel Arteta
◎编  剧 贾斯汀·麦伦 Justin Malen
◎主  演 詹妮弗·加纳 Jennifer Garner
      埃德加·拉米雷兹 édgar Ramírez
      琼·黛安·拉斐尔 June Diane Raphael
      珍娜·奥尔特加 Jenna Ortega
      奈特·法松 Nat Faxon
      艾娃·艾伦 Ava Allan
      梅根·斯科特 Megan Stott
      乔丹 约翰孙-西德 Jordan Johnson-Hinds
      莱昂纳多·吴 Leonardo Nam
      詹姆斯·凯森·李 James Kyson-Lee
      K·C·克莱德 K.C. Clyde
      司徒颂曦 Hayden Szeto
      格雷格·克罗默 Greg Cromer
      米切尔·拉 Michelle La
      杰西卡·婕德·安德烈什 Jessica Andres
      卡桑德拉·斯塔尔 Cassandra Starr
      洛拉·苏尔坦 Lola Sultan
      亚当·费森 Adam Faison
      林恩·安德鲁斯 Lynn Andrews
      凯蒂·贝克 Katie Baker
      吉·亚历山大 Gee Alexander
      凯登斯·默里 Cadence Murray
      斯利姆·克什里 Slim Khezri
      Kristi Lauren


◎简  介

  小鬼头当家,24 小时全程作主不中断。
  艾莉森和卡洛斯觉得他们老是对自己的小孩和同事说「不」,于是决定给三个孩子一个「有求必应日」:他们将在这 24 小时内对小孩言听计从。两人却万万没料到自己会因此在洛杉矶疲于奔命,踏上一场翻天覆地的冒险;更令人意外的是,这场冒险拉近了全家人之间的距离,家人间的情感也因此紧密相依。本片请到珍妮佛·嘉纳、艾格·雷米瑞兹、珍娜·奥蒂嘉、朱利安·勒纳和爱芙莉·卡格尼拉同台飙戏。

General
Complete name                  : Yes.Day.2021.HDR.2160p.WEBRip.x265-iNTENSO[TGx]\Yes.Day.2021.HDR.2160p.WEBRip.x265-iNTENSO.mkv
Format                         : Matroska
Format version                 : Version 4
File size                      : 11.3 GiB
Duration                       : 1 h 29 min
Overall bit rate               : 18.0 Mb/s
Encoded date                   : UTC 2021-03-19 19:56:27
Writing application            : mkvmerge v8.2.0 ('World of Adventure') 64bit
Writing library                : libebml v1.3.1 + libmatroska v1.4.2
IsTruncated                    : Yes

Video
ID                             : 1
Format                         : HEVC
Format/Info                    : High Efficiency Video Coding
Format profile                 : Main 10@L5.1@High
HDR format                     : SMPTE ST 2086, HDR10 compatible
Codec ID                       : V_MPEGH/ISO/HEVC
Duration                       : 1 h 29 min
Bit rate                       : 16.9 Mb/s
Width                          : 3 840 pixels
Height                         : 1 920 pixels
Display aspect ratio           : 2.000
Frame rate mode                : Constant
Frame rate                     : 24.000 FPS
Color space                    : YUV
Chroma subsampling             : 4:2:0 (Type 2)
Bit depth                      : 10 bits
Bits/(Pixel*Frame)             : 0.095
Stream size                    : 10.6 GiB (94%)
Writing library                : x265 3.4+2-73ca1d7be377:[Windows][GCC 10.2.1][64 bit] 10bit
Encoding settings              : cpuid=1111039 / frame-threads=4 / numa-pools=16 / wpp / no-pmode / no-pme / no-psnr / no-ssim / log-level=2 / input-csp=1 / input-res=3840x1920 / interlace=0 / total-frames=0 / level-idc=51 / high-tier=1 / uhd-bd=0 / ref=4 / no-allow-non-conformance / repeat-headers / annexb / no-aud / no-hrd / info / hash=0 / no-temporal-layers / no-open-gop / min-keyint=24 / keyint=250 / gop-lookahead=0 / bframes=3 / b-adapt=2 / b-pyramid / bframe-bias=0 / rc-lookahead=20 / lookahead-slices=8 / scenecut=40 / hist-scenecut=0 / radl=0 / no-splice / no-intra-refresh / ctu=64 / min-cu-size=8 / no-rect / no-amp / max-tu-size=32 / tu-inter-depth=1 / tu-intra-depth=1 / limit-tu=0 / rdoq-level=0 / dynamic-rd=0.00 / no-ssim-rd / signhide / no-tskip / nr-intra=0 / nr-inter=0 / no-constrained-intra / no-strong-intra-smoothing / max-merge=3 / limit-refs=1 / no-limit-modes / me=1 / subme=2 / merange=57 / temporal-mvp / no-frame-dup / no-hme / weightp / no-weightb / no-analyze-src-pics / deblock=-3:-3 / no-sao / no-sao-non-deblock / rd=3 / selective-sao=0 / early-skip / rskip / no-fast-intra / no-tskip-fast / no-cu-lossless / b-intra / no-splitrd-skip / rdpenalty=0 / psy-rd=2.00 / psy-rdoq=0.00 / no-rd-refine / no-lossless / cbqpoffs=0 / crqpoffs=0 / rc=crf / crf=17.0 / qcomp=0.60 / qpstep=4 / stats-write=0 / stats-read=0 / vbv-maxrate=160000 / vbv-bufsize=160000 / vbv-init=0.9 / crf-max=0.0 / crf-min=0.0 / ipratio=1.40 / pbratio=1.30 / aq-mode=2 / aq-strength=1.00 / no-cutree / zone-count=0 / no-strict-cbr / qg-size=32 / no-rc-grain / qpmax=69 / qpmin=0 / no-const-vbv / sar=0 / overscan=0 / videoformat=5 / range=0 / colorprim=9 / transfer=16 / colormatrix=9 / chromaloc=1 / chromaloc-top=2 / chromaloc-bottom=2 / display-window=0 / master-display=G(13250,34500)B(7500,3000)R(34000,16000)WP(15635,16450)L(10000000,1) / cll=2713,186 / min-luma=0 / max-luma=1023 / log2-max-poc-lsb=8 / vui-timing-info / vui-hrd-info / slices=1 / no-opt-qp-pps / no-opt-ref-list-length-pps / no-multi-pass-opt-rps / scenecut-bias=0.05 / hist-threshold=0.01 / no-opt-cu-delta-qp / no-aq-motion / hdr10 / hdr10-opt / no-dhdr10-opt / no-idr-recovery-sei / analysis-reuse-level=0 / analysis-save-reuse-level=0 / analysis-load-reuse-level=0 / scale-factor=0 / refine-intra=0 / refine-inter=0 / refine-mv=1 / refine-ctu-distortion=0 / no-limit-sao / ctu-info=0 / no-lowpass-dct / refine-analysis-type=0 / copy-pic=1 / max-ausize-factor=1.0 / no-dynamic-refine / no-single-sei / no-hevc-aq / no-svt / no-field / qp-adaptation-range=1.00 / no-scenecut-aware-qpconformance-window-offsets / right=0 / bottom=0 / decoder-max-rate=0
Language                       : English
Default                        : Yes
Forced                         : No
Color range                    : Limited
Color primaries                : BT.2020
Transfer characteristics       : PQ
Matrix coefficients            : BT.2020 non-constant
Mastering display color primar : Display P3
Mastering display luminance    : min: 0.0001 cd/m2, max: 1000 cd/m2
Maximum Content Light Level    : 2713 cd/m2
Maximum Frame-Average Light Le : 186 cd/m2

Audio
ID                             : 2
Format                         : E-AC-3 JOC
Format/Info                    : Enhanced AC-3 with Joint Object Coding
Commercial name                : Dolby Digital Plus with Dolby Atmos
Codec ID                       : A_EAC3
Duration                       : 1 h 29 min
Bit rate mode                  : Constant
Bit rate                       : 768 kb/s
Channel(s)                     : 6 channels
Channel layout                 : L R C LFE Ls Rs
Sampling rate                  : 48.0 kHz
Frame rate                     : 31.250 FPS (1536 SPF)
Compression mode               : Lossy
Delay relative to video        : 30 ms
Stream size                    : 492 MiB (4%)
Title                          : ENG E-AC3 5.1 768kbit ATMOS
Language                       : English
Service kind                   : Complete Main
Default                        : No
Forced                         : No
Complexity index               : 16
Number of dynamic objects      : 15
Bed channel count              : 1 channel
Bed channel configuration      : LFE

Text
ID                             : 3
Format                         : UTF-8
Codec ID                       : S_TEXT/UTF8
Codec ID/Info                  : UTF-8 Plain Text
Language                       : English
Default                        : No
Forced                         : No



Harone31003.jpg Harone30052.jpg Harone8778.jpg Harone238.jpg


游客,如果您要查看本帖隐藏内容请回复



.
回复

使用道具 举报

0

主题

1035

帖子

3083

积分

4K家园VIP

Rank: 9Rank: 9Rank: 9

积分
3083
发表于 2021-3-31 12:22:56 来自手机 | 显示全部楼层
4K应该不错,我也下个看看
回复 支持 反对

使用道具 举报

0

主题

3503

帖子

9830

积分

4K家园VIP

Rank: 9Rank: 9Rank: 9

积分
9830
发表于 2021-4-1 09:09:20 | 显示全部楼层
有求必应日4k
回复 支持 反对

使用道具 举报

2

主题

1192

帖子

3598

积分

4K家园VIP

Rank: 9Rank: 9Rank: 9

积分
3598
发表于 2021-4-1 13:05:41 | 显示全部楼层
怎么这么大,希望我电视能看啊
回复 支持 反对

使用道具 举报

0

主题

1

帖子

6

积分

新手上路

Rank: 1

积分
6
发表于 2021-4-1 18:06:52 来自手机 | 显示全部楼层
谢谢楼主分享
回复 支持 反对

使用道具 举报

您需要登录后才可以回帖 登录 | 立即注册

本版积分规则

精彩图文
Archiver|手机版|TAG|Sitemap|新帖|专题|联系我们:邮箱: 4kjia.com@gmail.com   

4k家园   ©2019