[4K电影] 蝙蝠侠大战超人:正义黎明 (2016)4K高清版本下载/大小23.79GB

  [复制链接]

409

主题

423

帖子

4076

积分

4K家园VIP

Rank: 9Rank: 9Rank: 9

积分
4076
 楼主| 发表于 2021-4-1 20:42:00 | 显示全部楼层 |阅读模式
本帖最后由 最爱4K哟 于 2021-4-2 13:20 编辑

p2365283296.webp_副本.jpg

◎译  名 蝙蝠侠大战超人:正义黎明/蝙蝠侠大战超人/蝙蝠侠对超人:正义曙光(港/台)/蝙蝠侠与超人:正义黎明
◎片  名 Batman v Superman: Dawn of Justice
◎年  代 2016
◎国  家 美国
◎类  别 动作/科幻/奇幻/冒险
◎语  言 英语
◎IMDb评分  6.7/10 from 465,160 users
◎片  长 183分钟
◎导  演 扎克·施奈德 Zack Snyder
◎主  演 本·阿弗莱克 Ben Affleck
      亨利·卡维尔 Henry Cavill
      艾米·亚当斯 Amy Adams
      盖尔·加朵 Gal Gadot
      杰西·艾森伯格 Jesse Eisenberg
      戴安·琳恩 Diane Lane
      劳伦斯·菲什伯恩 Laurence Fishburne
      杰瑞米·艾恩斯 Jeremy Irons
      霍利·亨特 Holly Hunter
      斯科特·麦克纳里 Scoot McNairy
      卡兰·马尔韦 Callan Mulvey
      冈本多绪 Tao Okamoto
      布兰登·斯平克 Brandon Spink
      劳伦·科汉 Lauren Cohan
      迈克尔·珊农 Michael Shannon

◎简  介

  故事发生在大都会之战18个月后,在那场战斗中许多建筑和市民惨遭波及。因为超人(亨利·卡维尔 饰)帮助人类解决了很多问题而被当做神来膜拜,但超人也因与佐德之战对城市造成的破坏而遭到逮捕和审讯,一度成为都市传说的蝙蝠侠韦恩(本·阿弗莱克 饰)重新出现在人们面前,他似乎正是为了惩罚超人而来。年轻的富豪莱克斯·卢瑟(杰西·艾森伯格 饰)又在二者的矛盾中挑拨离间,神秘的戴安娜·普林斯(盖尔·加朵 饰)也因自己的目的介入其中……

General

Complete name                  : Batman.v.Superman.Dawn.of.Justice.2016.IMAX.Extended.Cut.2160p.HMAX.WEB-DL.DDP.5.1.Atmos.HDR.H.265-FLUX.mkv
Format                         : Matroska
Format version                 : Version 4
File size                      : 23.6 GiB
Duration                       : 3 h 2 min
Overall bit rate               : 18.5 Mb/s
Description                    : Fearing the actions of a god-like superhero left unchecked, Gotham City's own formidable, forceful vigilante takes on Metropolis's most revered, modern-day savior, while the world wrestles with what sort of hero it really needs. And with Batman and Superman at war with one another, a new threat quickly arises, putting mankind in greater danger than it's ever known before.
Writing application            : Lavf58.45.100
Writing library                : Lavf58.45.100
IsTruncated                    : Yes
ErrorDetectionType             : Per level 1

Video
ID                             : 1
Format                         : HEVC
Format/Info                    : High Efficiency Video Coding
Format profile                 : Main 10@L5@Main
HDR format                     : SMPTE ST 2086, HDR10 compatible
Codec ID                       : V_MPEGH/ISO/HEVC
Duration                       : 3 h 2 min
Bit rate                       : 17.4 Mb/s
Width                          : 3 840 pixels
Height                         : 2 160 pixels
Display aspect ratio           : 16:9
Frame rate mode                : Constant
Frame rate                     : 23.976 (24000/1001) FPS
Color space                    : YUV
Chroma subsampling             : 4:2:0
Bit depth                      : 10 bits
Bits/(Pixel*Frame)             : 0.087
Stream size                    : 22.2 GiB (94%)
Writing library                : x265 3.4hy:[Linux][GCC 7.5.0][64 bit] 10bit
Encoding settings              : cpuid=1111039 / frame-threads=1 / wpp / no-pmode / no-pme / no-psnr / no-ssim / log-level=2 / input-csp=1 / input-res=3840x2160 / interlace=0 / total-frames=0 / level-idc=0 / high-tier=1 / uhd-bd=0 / ref=4 / no-allow-non-conformance / repeat-headers / annexb / no-aud / no-hrd / info / hash=0 / no-temporal-layers / no-open-gop / min-keyint=96 / keyint=96 / gop-lookahead=0 / bframes=3 / b-adapt=2 / b-pyramid / bframe-bias=0 / rc-lookahead=25 / lookahead-slices=4 / scenecut=40 / hist-scenecut=0 / radl=0 / no-splice / no-intra-refresh / ctu=64 / min-cu-size=8 / rect / no-amp / max-tu-size=32 / tu-inter-depth=1 / tu-intra-depth=1 / limit-tu=0 / rdoq-level=2 / dynamic-rd=0.00 / no-ssim-rd / signhide / no-tskip / nr-intra=0 / nr-inter=0 / no-constrained-intra / strong-intra-smoothing / max-merge=3 / limit-refs=3 / limit-modes / me=3 / subme=3 / merange=57 / temporal-mvp / no-frame-dup / no-hme / weightp / no-weightb / no-analyze-src-pics / deblock=0:0 / sao / no-sao-non-deblock / rd=4 / selective-sao=4 / no-early-skip / rskip / no-fast-intra / no-tskip-fast / no-cu-lossless / no-b-intra / no-splitrd-skip / rdpenalty=0 / psy-rd=2.00 / psy-rdoq=1.00 / no-rd-refine / no-lossless / cbqpoffs=0 / crqpoffs=0 / rc=abr / bitrate=18000 / qcomp=0.60 / qpstep=4 / stats-write=0 / stats-read=2 / cplxblur=20.0 / qblur=0.5 / vbv-maxrate=24500 / vbv-bufsize=24500 / vbv-init=0.6 / vbv-end=0.6 / vbv-end-fr-adj=0.0 / ipratio=1.40 / pbratio=1.30 / aq-mode=2 / aq-strength=1.00 / cutree / zone-count=0 / no-strict-cbr / qg-size=32 / no-rc-grain / qpmax=69 / qpmin=0 / no-const-vbv / sar=0 / overscan=0 / videoformat=5 / range=0 / colorprim=9 / transfer=16 / colormatrix=9 / chromaloc=0 / display-window=0 / master-display=G(13250,34500)B(7500,3000)R(34000,16000)WP(15635,16450)L(40000000,50) / cll=699,530 / min-luma=0 / max-luma=1023 / log2-max-poc-lsb=8 / vui-timing-info / vui-hrd-info / no-concatenation / slices=1 / no-opt-qp-pps / no-opt-ref-list-length-pps / no-multi-pass-opt-rps / scenecut-bias=0.05 / hist-threshold=0.01 / no-opt-cu-delta-qp / no-aq-motion / hdr10 / no-hdr10-opt / no-dhdr10-opt / no-idr-recovery-sei / analysis-reuse-level=0 / analysis-save-reuse-level=0 / analysis-load-reuse-level=0 / scale-factor=0 / refine-intra=0 / refine-inter=0 / refine-mv=1 / refine-ctu-distortion=0 / no-limit-sao / ctu-info=0 / no-lowpass-dct / refine-analysis-type=0 / copy-pic=1 / max-ausize-factor=1.0 / no-dynamic-refine / no-single-sei / no-hevc-aq / no-svt / no-field / qp-adaptation-range=1.00 / no-scenecut-aware-qpconformance-window-offsets / right=0 / bottom=0 / decoder-max-rate=0
Default                        : Yes
Forced                         : No
Color range                    : Limited
Color primaries                : BT.2020
Transfer characteristics       : PQ
Matrix coefficients            : BT.2020 non-constant
Mastering display color primar : Display P3
Mastering display luminance    : min: 0.0050 cd/m2, max: 4000 cd/m2
Maximum Content Light Level    : 699 cd/m2
Maximum Frame-Average Light Le : 530 cd/m2

Audio
ID                             : 2
Format                         : E-AC-3 JOC
Format/Info                    : Enhanced AC-3 with Joint Object Coding
Commercial name                : Dolby Digital Plus with Dolby Atmos
Codec ID                       : A_EAC3
Duration                       : 3 h 2 min
Bit rate mode                  : Constant
Bit rate                       : 768 kb/s
Channel(s)                     : 6 channels
Channel layout                 : L R C LFE Ls Rs
Sampling rate                  : 48.0 kHz
Frame rate                     : 31.250 FPS (1536 SPF)
Bit depth                      : 32 bits
Compression mode               : Lossy
Stream size                    : 1 003 MiB (4%)
Language                       : English
Service kind                   : Complete Main
Default                        : Yes
Forced                         : No
Complexity index               : 16
Number of dynamic objects      : 15
Bed channel count              : 1 channel
Bed channel configuration      : LFE

Text
ID                             : 3
Format                         : UTF-8
Codec ID                       : S_TEXT/UTF8
Codec ID/Info                  : UTF-8 Plain Text
Duration                       : 2 h 53 min
Language                       : English
Default                        : Yes
Forced                         : No


99825002578346715130_thumb.png 27210337552180454868_thumb.png 23426539162930403772_thumb.png 90981874934803511806_thumb.png 60674170742863478835_thumb.png 00472442699681509806_thumb.png


游客,如果您要查看本帖隐藏内容请回复

游客,如果您要查看本帖隐藏内容请回复



相关4K蓝光原盘下载地址(点击标题打开):《蝙蝠侠大战超人:正义黎明[内嵌中字》4K-[原盘+REMUX]下载


.
回复

使用道具 举报

52

主题

1332

帖子

3826

积分

4K家园VIP

Rank: 9Rank: 9Rank: 9

积分
3826
发表于 2021-4-1 20:42:05 | 显示全部楼层
非常好,顶一下
回复 支持 反对

使用道具 举报

0

主题

3503

帖子

9830

积分

4K家园VIP

Rank: 9Rank: 9Rank: 9

积分
9830
发表于 2021-4-1 21:24:18 | 显示全部楼层
太好啦&萬分感謝版主的無私發佈分享%
回复 支持 反对

使用道具 举报

0

主题

12

帖子

45

积分

新手上路

Rank: 1

积分
45
发表于 2021-4-1 21:57:41 | 显示全部楼层
谢谢
回复

使用道具 举报

0

主题

2

帖子

13

积分

新手上路

Rank: 1

积分
13
发表于 2021-4-1 22:25:48 | 显示全部楼层
顶顶
回复

使用道具 举报

0

主题

2

帖子

39

积分

4K家园VIP

Rank: 9Rank: 9Rank: 9

积分
39
发表于 2021-4-1 22:38:57 | 显示全部楼层
FEICHANGBUCUO
回复 支持 反对

使用道具 举报

0

主题

192

帖子

1305

积分

4K家园VIP

Rank: 9Rank: 9Rank: 9

积分
1305
QQ
发表于 2021-4-1 23:55:37 | 显示全部楼层
楼主辛苦了,谢谢楼主,感谢楼主分享,楼主好人一生平安!!!
回复 支持 反对

使用道具 举报

0

主题

31

帖子

4601

积分

中级会员

Rank: 4

积分
4601
发表于 2021-4-2 10:49:52 | 显示全部楼层
感谢楼主的分享
回复 支持 反对

使用道具 举报

0

主题

25

帖子

83

积分

新手上路

Rank: 1

积分
83
发表于 2021-4-2 11:08:27 | 显示全部楼层

Where is Administration 4kjia.com?

Can I contact Administration?
It is important.
Regards.
回复 支持 反对

使用道具 举报

0

主题

2

帖子

9

积分

新手上路

Rank: 1

积分
9
发表于 2021-4-2 16:49:56 | 显示全部楼层
谢谢分享
回复

使用道具 举报

您需要登录后才可以回帖 登录 | 立即注册

本版积分规则

精彩图文
Archiver|手机版|TAG|Sitemap|新帖|专题|联系我们:邮箱: 4kjia.com@gmail.com   

4k家园   ©2019