[4K UHD 蓝光原盘] 《搏击俱乐部 / Fight Club (俄版)》4K蓝光REMUX 版本下载/207.52GB

[复制链接]

803

主题

827

帖子

1万

积分

超级版主

Rank: 8Rank: 8

积分
10704
 楼主| 发表于 2021-4-2 12:51:10 | 显示全部楼层 |阅读模式
本帖最后由 没完没了 于 2021-4-2 13:45 编辑

QQ图片20210402122734_副本_meitu_2.jpg

◎译  名 搏击俱乐部 / 搏击会(港) / 斗阵俱乐部(台) / 格斗俱乐部
◎片  名 Fight Club
◎年  代 1999
◎产  地 美国 / 德国
◎类  别 剧情 / 动作 / 悬疑 / 惊悚
◎语  言 英语
◎上映日期 1999-09-10(威尼斯电影节) / 1999-10-15(美国)
◎IMDb评分 8.8/10 from 1790847 users
◎IMDb链接 https://www.imdb.com/title/tt0137523
◎豆瓣评分 9.0/10 from 635231 users
◎豆瓣链接 https://movie.douban.com/subject/1292000/
◎片  长 139 分钟
◎导  演 大卫·芬奇 David Fincher
◎编  剧 恰克·帕拉尼克 Chuck Palahniuk / Jim Uhls
◎主  演 爱德华·诺顿 Edward Norton
      布拉德·皮特 Brad Pitt
      海伦娜·邦汉·卡特 Helena Bonham Carter
      扎克·格雷尼尔 Zach Grenier
      米特·洛夫 Meat Loaf
      杰瑞德·莱托 Jared Leto
      艾恩·贝利 Eion Bailey
      里奇蒙德·阿奎特 Richmond Arquette
      乔治·马奎尔 George Maguire



◎简  介

  杰克(爱德华?诺顿 饰)是一个大汽车公司的职员,患有严重的失眠症,对周围的一切充满危机和憎恨。
  一个偶然的机会,杰克遇上了卖肥皂的商人泰勒(布拉德?皮特),一个浑身充满叛逆、残酷和暴烈的痞子英雄,并因为自己公寓失火而住进了泰勒破旧不堪的家中。两人因缘际会地成为了好朋友,并创立了“搏击俱乐部”:一个让人们不戴护具而徒手搏击,宗旨在于发泄情绪的地下组织。
  俱乐部吸引了越来越多的人,逐渐发展成为一个全国性的地下组织,而泰勒也以自己个人的魅力,吸引着那些盲目的信徒。俱乐部的成员们到处滋事打架、大肆破坏,泰勒本人的行为也越来越疯狂。
  杰克对于“搏击俱乐部”的现况及泰勒的行为越来越无法忍受,和泰勒发生争执,泰勒离开了他。然而,杰克发现,他走到何处都无法摆脱泰勒的影子,他开始思考:我到底是谁?

◎获奖情况

  第72届奥斯卡金像奖(2000)
  最佳音效剪辑(提名) 伦·克斯 / 理查德·姆尼斯


4K BDRemux版本信息
Media Info
General
Complete name : 搏击俱乐部(109.65GB)Fight Club.1999\Fight Club.1999.BDRemux.AI_UPSCALE_3840x2160_alq-10_SDR_Finalalang.mkv
Format : Matroska
Format version : Version 4
File size : 110 GiB
Duration : 2 h 19 min
Overall bit rate mode : Variable
Overall bit rate : 113 Mb/s
Encoded date : UTC 2021-02-16 16:15:49
Writing application : mkvmerge v53.0.0 ('Fool's Gold') 64-bit
Writing library : libebml v1.4.1 + libmatroska v1.6.2

Video
ID : 1
Format : AVC
Format/Info : Advanced Video Codec
Format profile : Baseline@L5.1
Format settings : 1 Ref Frames
Format settings, CABAC : No
Format settings, Reference fra : 1 frame
Format settings, GOP : M=1, N=12
Codec ID : V_MPEG4/ISO/AVC
Duration : 2 h 19 min
Bit rate : 70.4 Mb/s
Width : 3 840 pixels
Height : 2 160 pixels
Display aspect ratio : 16:9
Frame rate mode : Constant
Frame rate : 23.976 (24000/1001) FPS
Color space : YUV
Chroma subsampling : 4:2:0
Bit depth : 8 bits
Scan type : Progressive
Bits/(Pixel*Frame) : 0.354
Stream size : 68.4 GiB (62%)
Writing library : x264 core 157 r2970 5493be8
Encoding settings : cabac=0 / ref=1 / deblock=0:0:0 / analyse=0:0 / me=dia / subme=0 / psy=1 / psy_rd=1.00:0.00 / mixed_ref=0 / me_range=16 / chroma_me=1 / trellis=0 / 8x8dct=0 / cqm=0 / deadzone=21,11 / fast_pskip=1 / chroma_qp_offset=0 / threads=8 / lookahead_threads=1 / sliced_threads=0 / nr=0 / decimate=1 / interlaced=0 / bluray_compat=0 / constrained_intra=0 / bframes=0 / weightp=0 / keyint=12 / keyint_min=1 / scenecut=0 / intra_refresh=0 / rc=crf / mbtree=0 / crf=15.0 / qcomp=0.60 / qpmin=0 / qpmax=69 / qpstep=4 / ip_ratio=1.40 / aq=0
Default : Yes
Forced : No
Color range : Limited
Color primaries : BT.709
Transfer characteristics : BT.709
Matrix coefficients : BT.709

Audio #1
ID : 2
Format : DTS
Format/Info : Digital Theater Systems
Codec ID : A_DTS
Duration : 2 h 19 min
Bit rate mode : Constant
Bit rate : 768 kb/s
Channel(s) : 6 channels
Channel layout : C L R Ls Rs LFE
Sampling rate : 48.0 kHz
Frame rate : 93.750 FPS (512 SPF)
Bit depth : 24 bits
Compression mode : Lossy
Stream size : 764 MiB (1%)
Title : Дубляж, Blu-ray CEE
Language : Russian
Default : Yes
Forced : Yes

Audio #2
ID : 3
Format : DTS XLL
Format/Info : Digital Theater Systems
Commercial name : DTS-HD Master Audio
Codec ID : A_DTS
Duration : 2 h 19 min
Bit rate mode : Variable
Bit rate : 3 195 kb/s
Channel(s) : 6 channels
Channel layout : C L R Ls Rs LFE
Sampling rate : 48.0 kHz
Frame rate : 93.750 FPS (512 SPF)
Bit depth : 24 bits
Compression mode : Lossless
Stream size : 3.10 GiB (3%)
Title : Tycoon Studio
Language : Russian
Default : No
Forced : No

Audio #3
ID : 4
Format : DTS XLL
Format/Info : Digital Theater Systems
Commercial name : DTS-HD Master Audio
Codec ID : A_DTS
Duration : 2 h 19 min
Bit rate mode : Variable
Bit rate : 3 151 kb/s
Channel(s) : 6 channels
Channel layout : C L R Ls Rs LFE
Sampling rate : 48.0 kHz
Frame rate : 93.750 FPS (512 SPF)
Bit depth : 24 bits
Compression mode : Lossless
Stream size : 3.06 GiB (3%)
Title : Позитив-Мультимедиа/Ранний
Language : Russian
Default : No
Forced : No

Audio #4
ID : 5
Format : DTS XLL
Format/Info : Digital Theater Systems
Commercial name : DTS-HD Master Audio
Codec ID : A_DTS
Duration : 2 h 19 min
Bit rate mode : Variable
Bit rate : 3 146 kb/s
Channel(s) : 6 channels
Channel layout : C L R Ls Rs LFE
Sampling rate : 48.0 kHz
Frame rate : 93.750 FPS (512 SPF)
Bit depth : 24 bits
Compression mode : Lossless
Stream size : 3.06 GiB (3%)
Title : Позитив-Мультимедиа/Переиздание
Language : Russian
Default : No
Forced : No

Audio #5
ID : 6
Format : DTS XLL
Format/Info : Digital Theater Systems
Commercial name : DTS-HD Master Audio
Codec ID : A_DTS
Duration : 2 h 19 min
Bit rate mode : Variable
Bit rate : 3 162 kb/s
Channel(s) : 6 channels
Channel layout : C L R Ls Rs LFE
Sampling rate : 48.0 kHz
Frame rate : 93.750 FPS (512 SPF)
Bit depth : 24 bits
Compression mode : Lossless
Stream size : 3.07 GiB (3%)
Title : Карусель
Language : Russian
Default : No
Forced : No

Audio #6
ID : 7
Format : DTS XLL
Format/Info : Digital Theater Systems
Commercial name : DTS-HD Master Audio
Codec ID : A_DTS
Duration : 2 h 19 min
Bit rate mode : Variable
Bit rate : 3 204 kb/s
Channel(s) : 6 channels
Channel layout : C L R Ls Rs LFE
Sampling rate : 48.0 kHz
Frame rate : 93.750 FPS (512 SPF)
Bit depth : 24 bits
Compression mode : Lossless
Stream size : 3.11 GiB (3%)
Title : Ю. Сербин
Language : Russian
Default : No
Forced : No

Audio #7
ID : 8
Format : DTS XLL
Format/Info : Digital Theater Systems
Commercial name : DTS-HD Master Audio
Codec ID : A_DTS
Duration : 2 h 19 min
Bit rate mode : Variable
Bit rate : 3 277 kb/s
Channel(s) : 6 channels
Channel layout : C L R Ls Rs LFE
Sampling rate : 48.0 kHz
Frame rate : 93.750 FPS (512 SPF)
Bit depth : 24 bits
Compression mode : Lossless
Stream size : 3.19 GiB (3%)
Title : В. Завгородний
Language : Russian
Default : No
Forced : No

Audio #8
ID : 9
Format : DTS XLL
Format/Info : Digital Theater Systems
Commercial name : DTS-HD Master Audio
Codec ID : A_DTS
Duration : 2 h 19 min
Bit rate mode : Variable
Bit rate : 3 146 kb/s
Channel(s) : 6 channels
Channel layout : C L R Ls Rs LFE
Sampling rate : 48.0 kHz
Frame rate : 93.750 FPS (512 SPF)
Bit depth : 24 bits
Compression mode : Lossless
Stream size : 3.06 GiB (3%)
Title : С. Рябов
Language : Russian
Default : No
Forced : No

Audio #9
ID : 10
Format : DTS XLL
Format/Info : Digital Theater Systems
Commercial name : DTS-HD Master Audio
Codec ID : A_DTS
Duration : 2 h 19 min
Bit rate mode : Variable
Bit rate : 3 152 kb/s
Channel(s) : 6 channels
Channel layout : C L R Ls Rs LFE
Sampling rate : 48.0 kHz
Frame rate : 93.750 FPS (512 SPF)
Bit depth : 24 bits
Compression mode : Lossless
Stream size : 3.06 GiB (3%)
Title : Диктор CDV
Language : Russian
Default : No
Forced : No

Audio #10
ID : 11
Format : DTS XLL
Format/Info : Digital Theater Systems
Commercial name : DTS-HD Master Audio
Codec ID : A_DTS
Duration : 2 h 19 min
Bit rate mode : Variable
Bit rate : 3 145 kb/s
Channel(s) : 6 channels
Channel layout : C L R Ls Rs LFE
Sampling rate : 48.0 kHz
Frame rate : 93.750 FPS (512 SPF)
Bit depth : 24 bits
Compression mode : Lossless
Stream size : 3.06 GiB (3%)
Title : А. Гаврилов
Language : Russian
Default : No
Forced : No

Audio #11
ID : 12
Format : DTS XLL
Format/Info : Digital Theater Systems
Commercial name : DTS-HD Master Audio
Codec ID : A_DTS
Duration : 2 h 19 min
Bit rate mode : Variable
Bit rate : 4 419 kb/s
Channel(s) : 6 channels
Channel layout : C L R Ls Rs LFE
Sampling rate : 48.0 kHz
Frame rate : 93.750 FPS (512 SPF)
Bit depth : 24 bits
Compression mode : Lossless
Stream size : 4.29 GiB (4%)
Title : М. Яроцкий
Language : Russian
Default : No
Forced : No

Audio #12
ID : 13
Format : DTS XLL
Format/Info : Digital Theater Systems
Commercial name : DTS-HD Master Audio
Codec ID : A_DTS
Duration : 2 h 19 min
Bit rate mode : Variable
Bit rate : 3 153 kb/s
Channel(s) : 6 channels
Channel layout : C L R Ls Rs LFE
Sampling rate : 48.0 kHz
Frame rate : 93.750 FPS (512 SPF)
Bit depth : 24 bits
Compression mode : Lossless
Stream size : 3.06 GiB (3%)
Title : А. Матвеев
Language : Russian
Default : No
Forced : No

Audio #13
ID : 14
Format : AC-3
Format/Info : Audio Coding 3
Commercial name : Dolby Digital
Codec ID : A_AC3
Duration : 2 h 19 min
Bit rate mode : Constant
Bit rate : 192 kb/s
Channel(s) : 2 channels
Channel layout : L R
Sampling rate : 48.0 kHz
Frame rate : 31.250 FPS (1536 SPF)
Compression mode : Lossy
Stream size : 191 MiB (0%)
Title : РТР / РЕН-ТВ / ТВ3
Language : Russian
Service kind : Complete Main
Default : No
Forced : No

Audio #14
ID : 15
Format : AC-3
Format/Info : Audio Coding 3
Commercial name : Dolby Digital
Codec ID : A_AC3
Duration : 2 h 19 min
Bit rate mode : Constant
Bit rate : 384 kb/s
Channel(s) : 6 channels
Channel layout : L R C LFE Ls Rs
Sampling rate : 48.0 kHz
Frame rate : 31.250 FPS (1536 SPF)
Compression mode : Lossy
Stream size : 382 MiB (0%)
Title : С. Визгунов
Language : Russian
Service kind : Complete Main
Default : No
Forced : No

Audio #15
ID : 16
Format : AC-3
Format/Info : Audio Coding 3
Commercial name : Dolby Digital
Codec ID : A_AC3
Duration : 2 h 19 min
Bit rate mode : Constant
Bit rate : 384 kb/s
Channel(s) : 6 channels
Channel layout : L R C LFE Ls Rs
Sampling rate : 48.0 kHz
Frame rate : 31.250 FPS (1536 SPF)
Compression mode : Lossy
Stream size : 382 MiB (0%)
Title : А. Алексеев
Language : Russian
Service kind : Complete Main
Default : No
Forced : No

Audio #16
ID : 17
Format : AC-3
Format/Info : Audio Coding 3
Commercial name : Dolby Digital
Codec ID : A_AC3
Duration : 2 h 19 min
Bit rate mode : Constant
Bit rate : 192 kb/s
Channel(s) : 2 channels
Channel layout : L R
Sampling rate : 48.0 kHz
Frame rate : 31.250 FPS (1536 SPF)
Compression mode : Lossy
Stream size : 191 MiB (0%)
Title : С. Кузнецов
Language : Russian
Service kind : Complete Main
Default : No
Forced : No

Audio #17
ID : 18
Format : AC-3
Format/Info : Audio Coding 3
Commercial name : Dolby Digital
Codec ID : A_AC3
Duration : 2 h 19 min
Bit rate mode : Constant
Bit rate : 448 kb/s
Channel(s) : 6 channels
Channel layout : L R C LFE Ls Rs
Sampling rate : 48.0 kHz
Frame rate : 31.250 FPS (1536 SPF)
Compression mode : Lossy
Stream size : 446 MiB (0%)
Title : К. Наумов
Language : Russian
Service kind : Complete Main
Default : No
Forced : No

Audio #18
ID : 19
Format : DTS XLL
Format/Info : Digital Theater Systems
Commercial name : DTS-HD Master Audio
Codec ID : A_DTS
Duration : 2 h 19 min
Bit rate mode : Variable
Bit rate : 3 266 kb/s
Channel(s) : 6 channels
Channel layout : C L R Ls Rs LFE
Sampling rate : 48.0 kHz
Frame rate : 93.750 FPS (512 SPF)
Bit depth : 24 bits
Compression mode : Lossless
Stream size : 3.17 GiB (3%)
Language : English
Default : No
Forced : No

Audio #19
ID : 20
Format : AC-3
Format/Info : Audio Coding 3
Commercial name : Dolby Digital
Codec ID : A_AC3
Duration : 2 h 19 min
Bit rate mode : Constant
Bit rate : 224 kb/s
Channel(s) : 2 channels
Channel layout : L R
Sampling rate : 48.0 kHz
Frame rate : 31.250 FPS (1536 SPF)
Compression mode : Lossy
Stream size : 223 MiB (0%)
Language : English
Service kind : Complete Main
Default : No
Forced : No

Audio #20
ID : 21
Format : AC-3
Format/Info : Audio Coding 3
Commercial name : Dolby Digital
Codec ID : A_AC3
Duration : 2 h 19 min
Bit rate mode : Constant
Bit rate : 224 kb/s
Channel(s) : 2 channels
Channel layout : L R
Sampling rate : 48.0 kHz
Frame rate : 31.250 FPS (1536 SPF)
Compression mode : Lossy
Stream size : 223 MiB (0%)
Language : English
Service kind : Complete Main
Default : No
Forced : No

Text #1
ID : 22
Format : PGS
Muxing mode : zlib
Codec ID : S_HDMV/PGS
Codec ID/Info : Picture based subtitle format used on BDs/HD-DVDs
Duration : 2 h 17 min
Bit rate : 42.6 kb/s
Count of elements : 3602
Stream size : 41.8 MiB (0%)
Language : Russian
Default : No
Forced : No

Text #2
ID : 23
Format : PGS
Muxing mode : zlib
Codec ID : S_HDMV/PGS
Codec ID/Info : Picture based subtitle format used on BDs/HD-DVDs
Duration : 2 h 16 min
Bit rate : 38.2 kb/s
Count of elements : 5166
Stream size : 37.2 MiB (0%)
Language : Russian
Default : No
Forced : No

Text #3
ID : 24
Format : PGS
Muxing mode : zlib
Codec ID : S_HDMV/PGS
Codec ID/Info : Picture based subtitle format used on BDs/HD-DVDs
Duration : 2 h 15 min
Bit rate : 44.8 kb/s
Count of elements : 3752
Stream size : 43.4 MiB (0%)
Language : Russian
Default : No
Forced : No

Text #4
ID : 25
Format : PGS
Muxing mode : zlib
Codec ID : S_HDMV/PGS
Codec ID/Info : Picture based subtitle format used on BDs/HD-DVDs
Duration : 2 h 14 min
Bit rate : 49.2 kb/s
Count of elements : 3528
Stream size : 47.5 MiB (0%)
Language : Russian
Default : No
Forced : No

Text #5
ID : 26
Format : PGS
Muxing mode : zlib
Codec ID : S_HDMV/PGS
Codec ID/Info : Picture based subtitle format used on BDs/HD-DVDs
Duration : 2 h 14 min
Bit rate : 49.3 kb/s
Count of elements : 3528
Stream size : 47.6 MiB (0%)
Language : Russian
Default : No
Forced : No

Text #6
ID : 27
Format : PGS
Muxing mode : zlib
Codec ID : S_HDMV/PGS
Codec ID/Info : Picture based subtitle format used on BDs/HD-DVDs
Duration : 2 h 17 min
Bit rate : 43.0 kb/s
Count of elements : 3614
Stream size : 42.2 MiB (0%)
Language : English
Default : No
Forced : No

Text #7
ID : 28
Format : PGS
Muxing mode : zlib
Codec ID : S_HDMV/PGS
Codec ID/Info : Picture based subtitle format used on BDs/HD-DVDs
Duration : 2 h 19 min
Bit rate : 59.2 kb/s
Count of elements : 3382
Stream size : 58.9 MiB (0%)
Language : Russian
Default : No
Forced : No

Text #8
ID : 29
Format : PGS
Muxing mode : zlib
Codec ID : S_HDMV/PGS
Codec ID/Info : Picture based subtitle format used on BDs/HD-DVDs
Duration : 2 h 19 min
Bit rate : 58.4 kb/s
Count of elements : 3970
Stream size : 58.0 MiB (0%)
Language : Russian
Default : No
Forced : No

Menu
00:00:00.000 : :Глава 01
00:03:00.000 : :Глава 02
00:06:00.000 : :Глава 03
00:09:00.000 : :Глава 04
00:12:00.000 : :Глава 05
00:15:00.000 : :Глава 06
00:18:00.000 : :Глава 07
00:21:00.000 : :Глава 08
00:24:00.000 : :Глава 09
00:27:00.000 : :Глава 10
00:30:00.000 : :Глава 11
00:33:00.000 : :Глава 12
00:36:00.000 : :Глава 13
00:39:00.000 : :Глава 14
00:42:00.000 : :Глава 15
00:45:00.000 : :Глава 16
00:48:00.000 : :Глава 17
00:51:00.000 : :Глава 18
00:54:00.000 : :Глава 19
00:57:00.000 : :Глава 20
01:00:00.000 : :Глава 21
01:03:00.000 : :Глава 22
01:06:00.000 : :Глава 23
01:09:00.000 : :Глава 24
01:12:00.000 : :Глава 25
01:15:00.000 : :Глава 26
01:18:00.000 : :Глава 27
01:21:00.000 : :Глава 28
01:24:00.000 : :Глава 29
01:27:00.000 : :Глава 30
01:30:00.000 : :Глава 31
01:33:00.000 : :Глава 32
01:36:00.000 : :Глава 33
01:39:00.000 : :Глава 34
01:42:00.000 : :Глава 35
01:45:00.000 : :Глава 36
01:48:00.000 : :Глава 37
01:51:00.000 : :Глава 38
01:54:00.000 : :Глава 39
01:57:00.000 : :Глава 40
02:00:00.000 : :Глава 41
02:03:00.000 : :Глава 42
02:06:00.000 : :Глава 43
02:09:00.000 : :Глава 44
02:12:00.000 : :Глава 45
02:15:00.000 : :Глава 46
02:18:00.000 : :Глава 47

4K WEB-DL Open Matte版本信息
General
Complete name : 搏击俱乐部(97.52GB)Fight Club.1999\Fight Club.1999.[Open Matte].WEB-DL.AI_UPSCALE_3840x2160_amq-10_SDR_Finalalang.mkv
Format : Matroska
Format version : Version 4
File size : 97.9 GiB
Duration : 2 h 19 min
Overall bit rate : 101 Mb/s
Encoded date : UTC 2021-02-16 15:47:58
Writing application : mkvmerge v53.0.0 ('Fool's Gold') 64-bit
Writing library : libebml v1.4.1 + libmatroska v1.6.2

Video
ID : 1
Format : AVC
Format/Info : Advanced Video Codec
Format profile : Baseline@L5.1
Format settings : 1 Ref Frames
Format settings, CABAC : No
Format settings, Reference fra : 1 frame
Format settings, GOP : M=1, N=12
Codec ID : V_MPEG4/ISO/AVC
Duration : 2 h 19 min
Bit rate : 80.1 Mb/s
Width : 3 840 pixels
Height : 2 160 pixels
Display aspect ratio : 16:9
Frame rate mode : Constant
Frame rate : 23.976 (24000/1001) FPS
Color space : YUV
Chroma subsampling : 4:2:0
Bit depth : 8 bits
Scan type : Progressive
Bits/(Pixel*Frame) : 0.403
Stream size : 77.8 GiB (80%)
Writing library : x264 core 157 r2970 5493be8
Encoding settings : cabac=0 / ref=1 / deblock=0:0:0 / analyse=0:0 / me=dia / subme=0 / psy=1 / psy_rd=1.00:0.00 / mixed_ref=0 / me_range=16 / chroma_me=1 / trellis=0 / 8x8dct=0 / cqm=0 / deadzone=21,11 / fast_pskip=1 / chroma_qp_offset=0 / threads=8 / lookahead_threads=1 / sliced_threads=0 / nr=0 / decimate=1 / interlaced=0 / bluray_compat=0 / constrained_intra=0 / bframes=0 / weightp=0 / keyint=12 / keyint_min=1 / scenecut=0 / intra_refresh=0 / rc=crf / mbtree=0 / crf=14.0 / qcomp=0.60 / qpmin=0 / qpmax=69 / qpstep=4 / ip_ratio=1.40 / aq=0
Default : Yes
Forced : No

Audio #1
ID : 2
Format : DTS
Format/Info : Digital Theater Systems
Codec ID : A_DTS
Duration : 2 h 19 min
Bit rate mode : Constant
Bit rate : 768 kb/s
Channel(s) : 6 channels
Channel layout : C L R Ls Rs LFE
Sampling rate : 48.0 kHz
Frame rate : 93.750 FPS (512 SPF)
Bit depth : 24 bits
Compression mode : Lossy
Stream size : 764 MiB (1%)
Title : Дубляж
Language : Russian
Default : Yes
Forced : Yes

Audio #2
ID : 3
Format : DTS
Format/Info : Digital Theater Systems
Codec ID : A_DTS
Duration : 2 h 19 min
Bit rate mode : Constant
Bit rate : 1 509 kb/s
Channel(s) : 6 channels
Channel layout : C L R Ls Rs LFE
Sampling rate : 48.0 kHz
Frame rate : 93.750 FPS (512 SPF)
Bit depth : 24 bits
Compression mode : Lossy
Stream size : 1.47 GiB (1%)
Title : Tycoon Studio
Language : Russian
Default : No
Forced : No

Audio #3
ID : 4
Format : DTS
Format/Info : Digital Theater Systems
Codec ID : A_DTS
Duration : 2 h 19 min
Bit rate mode : Constant
Bit rate : 1 509 kb/s
Channel(s) : 6 channels
Channel layout : C L R Ls Rs LFE
Sampling rate : 48.0 kHz
Frame rate : 93.750 FPS (512 SPF)
Bit depth : 24 bits
Compression mode : Lossy
Stream size : 1.47 GiB (1%)
Title : Позитив-Мультимедиа№1
Language : Russian
Default : No
Forced : No

Audio #4
ID : 5
Format : DTS
Format/Info : Digital Theater Systems
Codec ID : A_DTS
Duration : 2 h 19 min
Bit rate mode : Constant
Bit rate : 1 509 kb/s
Channel(s) : 6 channels
Channel layout : C L R Ls Rs LFE
Sampling rate : 48.0 kHz
Frame rate : 93.750 FPS (512 SPF)
Bit depth : 24 bits
Compression mode : Lossy
Stream size : 1.47 GiB (1%)
Title : Позитив-Мультимедиа№2
Language : Russian
Default : No
Forced : No

Audio #5
ID : 6
Format : DTS
Format/Info : Digital Theater Systems
Codec ID : A_DTS
Duration : 2 h 19 min
Bit rate mode : Constant
Bit rate : 1 509 kb/s
Channel(s) : 6 channels
Channel layout : C L R Ls Rs LFE
Sampling rate : 48.0 kHz
Frame rate : 93.750 FPS (512 SPF)
Bit depth : 24 bits
Compression mode : Lossy
Stream size : 1.47 GiB (1%)
Title : Карусель
Language : Russian
Default : No
Forced : No

Audio #6
ID : 7
Format : DTS
Format/Info : Digital Theater Systems
Codec ID : A_DTS
Duration : 2 h 19 min
Bit rate mode : Constant
Bit rate : 1 509 kb/s
Channel(s) : 6 channels
Channel layout : C L R Ls Rs LFE
Sampling rate : 48.0 kHz
Frame rate : 93.750 FPS (512 SPF)
Bit depth : 24 bits
Compression mode : Lossy
Stream size : 1.47 GiB (1%)
Title : Ю. Сербин
Language : Russian
Default : No
Forced : No

Audio #7
ID : 8
Format : DTS
Format/Info : Digital Theater Systems
Codec ID : A_DTS
Duration : 2 h 19 min
Bit rate mode : Constant
Bit rate : 1 509 kb/s
Channel(s) : 6 channels
Channel layout : C L R Ls Rs LFE
Sampling rate : 48.0 kHz
Frame rate : 93.750 FPS (512 SPF)
Bit depth : 24 bits
Compression mode : Lossy
Stream size : 1.47 GiB (1%)
Title : В. Завгородний
Language : Russian
Default : No
Forced : No

Audio #8
ID : 9
Format : DTS
Format/Info : Digital Theater Systems
Codec ID : A_DTS
Duration : 2 h 19 min
Bit rate mode : Constant
Bit rate : 1 509 kb/s
Channel(s) : 6 channels
Channel layout : C L R Ls Rs LFE
Sampling rate : 48.0 kHz
Frame rate : 93.750 FPS (512 SPF)
Bit depth : 24 bits
Compression mode : Lossy
Stream size : 1.47 GiB (1%)
Title : С. Рябов
Language : Russian
Default : No
Forced : No

Audio #9
ID : 10
Format : DTS
Format/Info : Digital Theater Systems
Codec ID : A_DTS
Duration : 2 h 19 min
Bit rate mode : Constant
Bit rate : 1 509 kb/s
Channel(s) : 6 channels
Channel layout : C L R Ls Rs LFE
Sampling rate : 48.0 kHz
Frame rate : 93.750 FPS (512 SPF)
Bit depth : 24 bits
Compression mode : Lossy
Stream size : 1.47 GiB (1%)
Title : Диктор CDV
Language : Russian
Default : No
Forced : No

Audio #10
ID : 11
Format : DTS
Format/Info : Digital Theater Systems
Codec ID : A_DTS
Duration : 2 h 19 min
Bit rate mode : Constant
Bit rate : 1 509 kb/s
Channel(s) : 6 channels
Channel layout : C L R Ls Rs LFE
Sampling rate : 48.0 kHz
Frame rate : 93.750 FPS (512 SPF)
Bit depth : 24 bits
Compression mode : Lossy
Stream size : 1.47 GiB (1%)
Title : А. Гаврилов
Language : Russian
Default : No
Forced : No

Audio #11
ID : 12
Format : DTS
Format/Info : Digital Theater Systems
Codec ID : A_DTS
Duration : 2 h 19 min
Bit rate mode : Constant
Bit rate : 1 509 kb/s
Channel(s) : 6 channels
Channel layout : C L R Ls Rs LFE
Sampling rate : 48.0 kHz
Frame rate : 93.750 FPS (512 SPF)
Bit depth : 24 bits
Compression mode : Lossy
Stream size : 1.47 GiB (1%)
Title : М. Яроцкий
Language : Russian
Default : No
Forced : No

Audio #12
ID : 13
Format : DTS
Format/Info : Digital Theater Systems
Codec ID : A_DTS
Duration : 2 h 19 min
Bit rate mode : Constant
Bit rate : 1 509 kb/s
Channel(s) : 6 channels
Channel layout : C L R Ls Rs LFE
Sampling rate : 48.0 kHz
Frame rate : 93.750 FPS (512 SPF)
Bit depth : 24 bits
Compression mode : Lossy
Stream size : 1.47 GiB (1%)
Title : А. Матвеев
Language : Russian
Default : No
Forced : No

Audio #13
ID : 14
Format : AC-3
Format/Info : Audio Coding 3
Commercial name : Dolby Digital
Codec ID : A_AC3
Duration : 2 h 19 min
Bit rate mode : Constant
Bit rate : 192 kb/s
Channel(s) : 2 channels
Channel layout : L R
Sampling rate : 48.0 kHz
Frame rate : 31.250 FPS (1536 SPF)
Compression mode : Lossy
Stream size : 191 MiB (0%)
Title : РТР / РЕН-ТВ / ТВ3
Language : Russian
Service kind : Complete Main
Default : No
Forced : No

Audio #14
ID : 15
Format : AC-3
Format/Info : Audio Coding 3
Commercial name : Dolby Digital
Codec ID : A_AC3
Duration : 2 h 19 min
Bit rate mode : Constant
Bit rate : 384 kb/s
Channel(s) : 6 channels
Channel layout : L R C LFE Ls Rs
Sampling rate : 48.0 kHz
Frame rate : 31.250 FPS (1536 SPF)
Compression mode : Lossy
Stream size : 382 MiB (0%)
Title : С. Визгунов
Language : Russian
Service kind : Complete Main
Default : No
Forced : No

Audio #15
ID : 16
Format : AC-3
Format/Info : Audio Coding 3
Commercial name : Dolby Digital
Codec ID : A_AC3
Duration : 2 h 19 min
Bit rate mode : Constant
Bit rate : 384 kb/s
Channel(s) : 6 channels
Channel layout : L R C LFE Ls Rs
Sampling rate : 48.0 kHz
Frame rate : 31.250 FPS (1536 SPF)
Compression mode : Lossy
Stream size : 382 MiB (0%)
Title : А. Алексеев
Language : Russian
Service kind : Complete Main
Default : No
Forced : No

Audio #16
ID : 17
Format : AC-3
Format/Info : Audio Coding 3
Commercial name : Dolby Digital
Codec ID : A_AC3
Duration : 2 h 19 min
Bit rate mode : Constant
Bit rate : 192 kb/s
Channel(s) : 2 channels
Channel layout : L R
Sampling rate : 48.0 kHz
Frame rate : 31.250 FPS (1536 SPF)
Compression mode : Lossy
Stream size : 191 MiB (0%)
Title : С. Кузнецов
Language : Russian
Service kind : Complete Main
Default : No
Forced : No

Audio #17
ID : 18
Format : AC-3
Format/Info : Audio Coding 3
Commercial name : Dolby Digital
Codec ID : A_AC3
Duration : 2 h 19 min
Bit rate mode : Constant
Bit rate : 448 kb/s
Channel(s) : 6 channels
Channel layout : L R C LFE Ls Rs
Sampling rate : 48.0 kHz
Frame rate : 31.250 FPS (1536 SPF)
Compression mode : Lossy
Stream size : 446 MiB (0%)
Title : К. Наумов
Language : Russian
Service kind : Complete Main
Default : No
Forced : No

Audio #18
ID : 19
Format : DTS
Format/Info : Digital Theater Systems
Codec ID : A_DTS
Duration : 2 h 19 min
Bit rate mode : Constant
Bit rate : 1 509 kb/s
Channel(s) : 6 channels
Channel layout : C L R Ls Rs LFE
Sampling rate : 48.0 kHz
Frame rate : 93.750 FPS (512 SPF)
Bit depth : 24 bits
Compression mode : Lossy
Stream size : 1.47 GiB (1%)
Language : English
Default : No
Forced : No

Text #1
ID : 20
Format : PGS
Muxing mode : zlib
Codec ID : S_HDMV/PGS
Codec ID/Info : Picture based subtitle format used on BDs/HD-DVDs
Duration : 2 h 14 min
Bit rate : 49.2 kb/s
Count of elements : 3528
Stream size : 47.5 MiB (0%)
Language : Russian
Default : No
Forced : No

Text #2
ID : 21
Format : PGS
Muxing mode : zlib
Codec ID : S_HDMV/PGS
Codec ID/Info : Picture based subtitle format used on BDs/HD-DVDs
Duration : 2 h 14 min
Bit rate : 49.3 kb/s
Count of elements : 3528
Stream size : 47.6 MiB (0%)
Language : Russian
Default : No
Forced : No

Text #3
ID : 22
Format : PGS
Muxing mode : zlib
Codec ID : S_HDMV/PGS
Codec ID/Info : Picture based subtitle format used on BDs/HD-DVDs
Duration : 2 h 17 min
Bit rate : 45.1 kb/s
Count of elements : 3668
Stream size : 44.2 MiB (0%)
Language : Russian
Default : No
Forced : No

Text #4
ID : 23
Format : PGS
Muxing mode : zlib
Codec ID : S_HDMV/PGS
Codec ID/Info : Picture based subtitle format used on BDs/HD-DVDs
Duration : 2 h 17 min
Bit rate : 43.0 kb/s
Count of elements : 3614
Stream size : 42.2 MiB (0%)
Language : Russian
Default : No
Forced : No

Text #5
ID : 24
Format : PGS
Muxing mode : zlib
Codec ID : S_HDMV/PGS
Codec ID/Info : Picture based subtitle format used on BDs/HD-DVDs
Duration : 2 h 19 min
Bit rate : 59.2 kb/s
Count of elements : 3382
Stream size : 58.9 MiB (0%)
Language : Russian
Default : No
Forced : No

Text #6
ID : 25
Format : PGS
Muxing mode : zlib
Codec ID : S_HDMV/PGS
Codec ID/Info : Picture based subtitle format used on BDs/HD-DVDs
Duration : 2 h 17 min
Bit rate : 42.6 kb/s
Count of elements : 3602
Stream size : 41.8 MiB (0%)
Language : English
Default : No
Forced : No

Text #7
ID : 26
Format : PGS
Muxing mode : zlib
Codec ID : S_HDMV/PGS
Codec ID/Info : Picture based subtitle format used on BDs/HD-DVDs
Duration : 2 h 16 min
Bit rate : 38.2 kb/s
Count of elements : 5166
Stream size : 37.2 MiB (0%)
Language : Russian
Default : No
Forced : No

Text #8
ID : 27
Format : PGS
Muxing mode : zlib
Codec ID : S_HDMV/PGS
Codec ID/Info : Picture based subtitle format used on BDs/HD-DVDs
Duration : 2 h 15 min
Bit rate : 44.8 kb/s
Count of elements : 3752
Stream size : 43.4 MiB (0%)
Language : Russian
Default : No
Forced : No

Menu
00:00:00.000 : :Глава 01
00:03:00.000 : :Глава 02
00:06:00.000 : :Глава 03
00:09:00.000 : :Глава 04
00:12:00.000 : :Глава 05
00:15:00.000 : :Глава 06
00:18:00.000 : :Глава 07
00:21:00.000 : :Глава 08
00:24:00.000 : :Глава 09
00:27:00.000 : :Глава 10
00:30:00.000 : :Глава 11
00:33:00.000 : :Глава 12
00:36:00.000 : :Глава 13
00:39:00.000 : :Глава 14
00:42:00.000 : :Глава 15
00:45:00.000 : :Глава 16
00:48:00.000 : :Глава 17
00:51:00.000 : :Глава 18
00:54:00.000 : :Глава 19
00:57:00.000 : :Глава 20
01:00:00.000 : :Глава 21
01:03:00.000 : :Глава 22
01:06:00.000 : :Глава 23
01:09:00.000 : :Глава 24
01:12:00.000 : :Глава 25
01:15:00.000 : :Глава 26
01:18:00.000 : :Глава 27
01:21:00.000 : :Глава 28
01:24:00.000 : :Глава 29
01:27:00.000 : :Глава 30
01:30:00.000 : :Глава 31
01:33:00.000 : :Глава 32
01:36:00.000 : :Глава 33
01:39:00.000 : :Глава 34
01:42:00.000 : :Глава 35
01:45:00.000 : :Глава 36
01:48:00.000 : :Глава 37
01:51:00.000 : :Глава 38
01:54:00.000 : :Глава 39
01:57:00.000 : :Глава 40
02:00:00.000 : :Глава 41
02:03:00.000 : :Глава 42
02:06:00.000 : :Глава 43
02:09:00.000 : :Глава 44
02:12:00.000 : :Глава 45
02:15:00.000 : :Глава 46
02:18:00.000 : :Глава 47
[свернуть]
Скриншоты


QQ图片20210402121922.png


首发4K蓝光REMUX俄版资源,无视迅雷下载软件,推荐使用qBittorrent等下载软件,有条件的推荐115更好的下载软件!
首发经典影片,有能力字幕爱好的发烧友,请联系本楼主


PS:本链接由BDRemux.AI_+WEB-DL.AI_二个版本组成
搏击俱乐部(207.52HB)Fight Club.1999Fight Club.1999.BDRemux.AI_+WEB-DL.AI_UPSCALE_3840x2160_alq-10_SDR_Finalalang
游客,如果您要查看本帖隐藏内容请回复

1心,爱心.gif
回复

使用道具 举报

1

主题

1092

帖子

3294

积分

4K家园VIP

Rank: 9Rank: 9Rank: 9

积分
3294
发表于 2021-4-2 12:51:16 | 显示全部楼层
你们要是有4K资源记得分享,别小气
回复 支持 反对

使用道具 举报

0

主题

3503

帖子

9830

积分

4K家园VIP

Rank: 9Rank: 9Rank: 9

积分
9830
发表于 2021-4-2 19:58:54 | 显示全部楼层
太好啦&萬分感謝版主的無私發佈分享%
回复 支持 反对

使用道具 举报

0

主题

25

帖子

83

积分

新手上路

Rank: 1

积分
83
发表于 2021-4-3 21:12:31 | 显示全部楼层

Where is Administration 4kjia.com?

Can I contact Administration?
It is important.
Regards.
回复 支持 反对

使用道具 举报

0

主题

1207

帖子

3637

积分

4K家园VIP

Rank: 9Rank: 9Rank: 9

积分
3637
发表于 7 天前 | 显示全部楼层
感谢分享
回复 支持 反对

使用道具 举报

2

主题

1141

帖子

3439

积分

4K家园VIP

Rank: 9Rank: 9Rank: 9

积分
3439
发表于 5 天前 | 显示全部楼层
楼猪辛苦了,支持一下分享好资源
回复 支持 反对

使用道具 举报

0

主题

8

帖子

50

积分

新手上路

Rank: 1

积分
50
发表于 5 天前 | 显示全部楼层
超级经典,支持了。
回复 支持 反对

使用道具 举报

1

主题

1184

帖子

3566

积分

4K家园VIP

Rank: 9Rank: 9Rank: 9

积分
3566
发表于 5 天前 来自手机 | 显示全部楼层
我只是看看啊,不说话
回复 支持 反对

使用道具 举报

3

主题

1234

帖子

3540

积分

4K家园VIP

Rank: 9Rank: 9Rank: 9

积分
3540
发表于 4 天前 | 显示全部楼层
4K家园资源最近貌似越来越多了
回复 支持 反对

使用道具 举报

0

主题

7

帖子

36

积分

新手上路

Rank: 1

积分
36
发表于 3 天前 | 显示全部楼层

Where is Administration 4kjia.com?

Can I contact Administration?
I'ts important.
Byu.
回复 支持 反对

使用道具 举报

您需要登录后才可以回帖 登录 | 立即注册

本版积分规则

精彩图文
Archiver|手机版|TAG|Sitemap|新帖|专题|联系我们:邮箱: 4kjia.com@gmail.com   

4k家园   ©2019