[4K UHD 蓝光原盘] 《偷天换日/The Italian Job (2003) (俄版)》4K蓝光REMUX 版本下载

[复制链接]

803

主题

827

帖子

1万

积分

超级版主

Rank: 8Rank: 8

积分
10704
 楼主| 发表于 5 天前 | 显示全部楼层 |阅读模式
本帖最后由 没完没了 于 2021-4-2 14:01 编辑

QQ图片20210402133325_副本_meitu_3.jpg

◎译  名 偷天换日 / 天罗盗网 / 意大利任务 / 爆窃意大利
◎片  名 The Italian Job
◎年  代 2003
◎国  家 美国
◎类  别 动作/惊悚/罪案
◎语  言 英语
◎字  幕 中英双语字幕
◎IMDB评分 (6.9/10 from 210,532 users)
◎IMDB链接 http://www.imdb.com/title/tt0317740
◎IMDB评分 (7.6/10 from 111938 users)
◎IMDB链接 https://movie.douban.com/subject/1301345/
◎片  长  111 min
◎导  演 F·加里·格雷
◎主  演 马克·沃尔伯格 Mark Wahlberg  ....Charlie Croker
      查理兹·塞隆 Charlize Theron  ....Stella Bridger
      爱德华·诺顿 Edward Norton  ....Steve
      唐纳德·萨瑟兰 Donald Sutherland  ....John Bridger
      杰森·斯坦森 Jason Statham  ....Handsome Rob
      赛斯·格林 Seth Green  ....Lyle
      茅斯·达夫 Mos Def  ....Left Ear
      凯莉·布鲁克 Kelly Brook  ....Lyle's Girlfriend
      Fausto Callegarini  ....Italian Guard

◎简  介 

         查理(马克·沃尔伯格 Mark Wahlberg 饰)本来可以拿着抢劫回来的那箱黄金安度余生,同伙史蒂夫(爱德华·诺顿 Edward Norton饰)的出卖却让他的阵脚大乱。史蒂夫不但独吞了巨款逃亡洛杉矶,还害得查理尝尽牢狱之苦。现 在从监狱出来的查理,正踌躇满志要找史蒂夫算上一帐。他网罗了盗窃高手——美女斯黛拉(查理兹·塞隆 Charlize Theron 饰)专门负责开保险柜,而他和其他搭档,则全力设计出一条通畅的大道,供迅速逃跑之用。斯黛拉前往引史蒂夫上勾,却被老奸巨猾的史蒂夫识破。查理则飞速的 破坏了洛杉矶的红绿灯系统,洛杉矶发生了蔚为壮观的大塞车,然而,令他们意外的是,逃脱没有如此简单——史蒂夫没有驱车追赶,他用了一辆直升飞机,在他们 上空穷追不舍。洛杉矶的地下隧道和街头小巷,陷入了一片混战。

4K BDRemux
Media Info
General
Complete name :偷天换日(55.91GB)Italian Job, The.2003\Italian Job, The.2003.BDRemux.AI_UPSCAL_3840x2160_alq-11_SDR_Finalalang.mkv
Format : Matroska
Format version : Version 4
File size : 54.5 GiB
Duration : 1 h 50 min
Overall bit rate mode : Variable
Overall bit rate : 70.6 Mb/s
Encoded date : UTC 2021-03-22 08:19:22
Writing application : mkvmerge v55.0.0 ('Waiting For Space') 64-bit
Writing library : libebml v1.4.2 + libmatroska v1.6.4

Video
ID : 1
Format : HEVC
Format/Info : High Efficiency Video Coding
Format profile : Main@L5.2@Main
Codec ID : V_MPEGH/ISO/HEVC
Duration : 1 h 50 min
Bit rate : 62.4 Mb/s
Width : 3 840 pixels
Height : 2 160 pixels
Display aspect ratio : 16:9
Frame rate mode : Constant
Frame rate : 23.976 (24000/1001) FPS
Color space : YUV
Chroma subsampling : 4:2:0
Bit depth : 8 bits
Bits/(Pixel*Frame) : 0.314
Stream size : 48.2 GiB (88%)
Language : English
Default : Yes
Forced : No

Audio #1
ID : 2
Format : AC-3
Format/Info : Audio Coding 3
Commercial name : Dolby Digital
Codec ID : A_AC3
Duration : 1 h 50 min
Bit rate mode : Constant
Bit rate : 384 kb/s
Channel(s) : 6 channels
Channel layout : L R C LFE Ls Rs
Sampling rate : 48.0 kHz
Frame rate : 31.250 FPS (1536 SPF)
Compression mode : Lossy
Stream size : 304 MiB (1%)
Title : дубляж
Language : Russian
Service kind : Complete Main
Default : Yes
Forced : Yes

Audio #2
ID : 3
Format : DTS XLL
Format/Info : Digital Theater Systems
Commercial name : DTS-HD Master Audio
Codec ID : A_DTS
Duration : 1 h 50 min
Bit rate mode : Variable
Bit rate : 2 494 kb/s
Channel(s) : 6 channels
Channel layout : C L R Ls Rs LFE
Sampling rate : 48.0 kHz
Frame rate : 93.750 FPS (512 SPF)
Bit depth : 24 bits
Compression mode : Lossless
Stream size : 1.93 GiB (4%)
Title : мнoгоголосый Позитив
Language : Russian
Default : No
Forced : No

Audio #3
ID : 4
Format : AC-3
Format/Info : Audio Coding 3
Commercial name : Dolby Digital
Codec ID : A_AC3
Duration : 1 h 50 min
Bit rate mode : Constant
Bit rate : 448 kb/s
Channel(s) : 6 channels
Channel layout : L R C LFE Ls Rs
Sampling rate : 48.0 kHz
Frame rate : 31.250 FPS (1536 SPF)
Compression mode : Lossy
Stream size : 354 MiB (1%)
Title : двухголосый НТВ+
Language : Russian
Service kind : Complete Main
Default : No
Forced : No

Audio #4
ID : 5
Format : DTS
Format/Info : Digital Theater Systems
Codec ID : A_DTS
Duration : 1 h 50 min
Bit rate mode : Constant
Bit rate : 768 kb/s
Channel(s) : 6 channels
Channel layout : C L R Ls Rs LFE
Sampling rate : 48.0 kHz
Frame rate : 93.750 FPS (512 SPF)
Bit depth : 24 bits
Compression mode : Lossy
Stream size : 607 MiB (1%)
Title : одноголосый Ю.Живов
Language : Russian
Default : No
Forced : No

Audio #5
ID : 6
Format : DTS XLL
Format/Info : Digital Theater Systems
Commercial name : DTS-HD Master Audio
Codec ID : A_DTS
Duration : 1 h 50 min
Bit rate mode : Variable
Bit rate : 4 031 kb/s
Channel(s) : 6 channels
Channel layout : C L R Ls Rs LFE
Sampling rate : 48.0 kHz
Frame rate : 93.750 FPS (512 SPF)
Bit depth : 24 bits
Compression mode : Lossless
Stream size : 3.11 GiB (6%)
Language : English
Default : No
Forced : No

Text #1
ID : 7
Format : PGS
Muxing mode : zlib
Codec ID : S_HDMV/PGS
Codec ID/Info : Picture based subtitle format used on BDs/HD-DVDs
Duration : 1 h 43 min
Bit rate : 31.5 kb/s
Count of elements : 2366
Stream size : 23.3 MiB (0%)
Language : English
Default : No
Forced : No

Text #2
ID : 8
Format : PGS
Muxing mode : zlib
Codec ID : S_HDMV/PGS
Codec ID/Info : Picture based subtitle format used on BDs/HD-DVDs
Duration : 1 h 43 min
Bit rate : 37.6 kb/s
Count of elements : 2780
Stream size : 27.9 MiB (0%)
Language : English
Default : No
Forced : No

Text #3
ID : 9
Format : PGS
Muxing mode : zlib
Codec ID : S_HDMV/PGS
Codec ID/Info : Picture based subtitle format used on BDs/HD-DVDs
Duration : 1 h 45 min
Bit rate : 24.9 kb/s
Count of elements : 2452
Stream size : 18.8 MiB (0%)
Language : Russian
Default : No
Forced : No

Menu
00:00:00.000 : :Глава 01
00:03:00.000 : :Глава 02
00:06:00.000 : :Глава 03
00:09:00.000 : :Глава 04
00:12:00.000 : :Глава 05
00:15:00.000 : :Глава 06
00:18:00.000 : :Глава 07
00:21:00.000 : :Глава 08
00:24:00.000 : :Глава 09
00:27:00.000 : :Глава 10
00:30:00.000 : :Глава 11
00:33:00.000 : :Глава 12
00:36:00.000 : :Глава 13
00:39:00.000 : :Глава 14
00:42:00.000 : :Глава 15
00:45:00.000 : :Глава 16
00:48:00.000 : :Глава 17
00:51:00.000 : :Глава 18
00:54:00.000 : :Глава 19
00:57:00.000 : :Глава 20
01:00:00.000 : :Глава 21
01:03:00.000 : :Глава 22
01:06:00.000 : :Глава 23
01:09:00.000 : :Глава 24
01:12:00.000 : :Глава 25
01:15:00.000 : :Глава 26
01:18:00.000 : :Глава 27
01:21:00.000 : :Глава 28
01:24:00.000 : :Глава 29
01:27:00.000 : :Глава 30
01:30:00.000 : :Глава 31
01:33:00.000 : :Глава 32
01:36:00.000 : :Глава 33
01:39:00.000 : :Глава 34
01:42:00.000 : :Глава 35
01:45:00.000 : :Глава 36
01:48:00.000 : :Глава 37

4K WEB-DL Open Matte версия
Media Info
General
Complete name :偷天换日(54.50GB)Italian Job, The.2003.BD.Open Matte.AI_UPSCAL_3840x2160_alq-12_SDR_Finalalang.mkv
Format : Matroska
Format version : Version 4
File size : 55.9 GiB
Duration : 1 h 50 min
Overall bit rate : 72.3 Mb/s
Movie name : The.Italian.Job.2003.Open.Matte_2.00x_3840x2160_alq-12
Encoded date : UTC 2021-03-29 15:56:47
Writing application : mkvmerge v55.0.0 ('Waiting For Space') 64-bit
Writing library : libebml v1.4.2 + libmatroska v1.6.4

Video
ID : 1
Format : HEVC
Format/Info : High Efficiency Video Coding
Format profile : Main@L5.2@Main
Codec ID : V_MPEGH/ISO/HEVC
Duration : 1 h 50 min
Bit rate : 62.5 Mb/s
Width : 3 840 pixels
Height : 2 160 pixels
Display aspect ratio : 16:9
Frame rate mode : Constant
Frame rate : 23.976 (24000/1001) FPS
Color space : YUV
Chroma subsampling : 4:2:0
Bit depth : 8 bits
Bits/(Pixel*Frame) : 0.314
Stream size : 48.4 GiB (86%)
Language : English
Default : Yes
Forced : No

Audio #1
ID : 2
Format : AC-3
Format/Info : Audio Coding 3
Commercial name : Dolby Digital
Codec ID : A_AC3
Duration : 1 h 50 min
Bit rate mode : Constant
Bit rate : 384 kb/s
Channel(s) : 6 channels
Channel layout : L R C LFE Ls Rs
Sampling rate : 48.0 kHz
Frame rate : 31.250 FPS (1536 SPF)
Compression mode : Lossy
Stream size : 304 MiB (1%)
Title : AC3 5.1 384Kps (Дубляж - iTunes)
Language : Russian
Service kind : Complete Main
Default : Yes
Forced : Yes

Audio #2
ID : 3
Format : AC-3
Format/Info : Audio Coding 3
Commercial name : Dolby Digital
Codec ID : A_AC3
Duration : 1 h 50 min
Bit rate mode : Constant
Bit rate : 448 kb/s
Channel(s) : 6 channels
Channel layout : L R C LFE Ls Rs
Sampling rate : 48.0 kHz
Frame rate : 31.250 FPS (1536 SPF)
Compression mode : Lossy
Stream size : 355 MiB (1%)
Title : AC3 5.1 448Kps (Профессиональный, двухголосый - НТВ+)
Language : Russian
Service kind : Complete Main
Default : No
Forced : No

Audio #3
ID : 4
Format : DTS
Format/Info : Digital Theater Systems
Codec ID : A_DTS
Duration : 1 h 50 min
Bit rate mode : Constant
Bit rate : 1 509 kb/s
Channel(s) : 6 channels
Channel layout : C L R Ls Rs LFE
Sampling rate : 48.0 kHz
Frame rate : 93.750 FPS (512 SPF)
Bit depth : 24 bits
Compression mode : Lossy
Stream size : 1.17 GiB (2%)
Title : DTS 5.1 1509Kbps (Профессиональный, многоголосый - Позитив-Мультимедиа)
Language : Russian
Default : No
Forced : No

Audio #4
ID : 5
Format : DTS
Format/Info : Digital Theater Systems
Codec ID : A_DTS
Duration : 1 h 50 min
Bit rate mode : Constant
Bit rate : 755 kb/s
Channel(s) : 6 channels
Channel layout : C L R Ls Rs LFE
Sampling rate : 48.0 kHz
Frame rate : 93.750 FPS (512 SPF)
Bit depth : 24 bits
Compression mode : Lossy
Stream size : 597 MiB (1%)
Title : DTS 5.1 755Kbps (Профессиональный, многоголосый - 505)
Language : Russian
Default : No
Forced : No

Audio #5
ID : 6
Format : DTS
Format/Info : Digital Theater Systems
Codec ID : A_DTS
Duration : 1 h 50 min
Bit rate mode : Constant
Bit rate : 1 509 kb/s
Channel(s) : 6 channels
Channel layout : C L R Ls Rs LFE
Sampling rate : 48.0 kHz
Frame rate : 93.750 FPS (512 SPF)
Bit depth : 24 bits
Compression mode : Lossy
Stream size : 1.17 GiB (2%)
Title : DTS 5.1 1509Kbps (Авторский, одноголосый - Ю. Сербин)
Language : Russian
Default : No
Forced : No

Audio #6
ID : 7
Format : DTS
Format/Info : Digital Theater Systems
Codec ID : A_DTS
Duration : 1 h 50 min
Bit rate mode : Constant
Bit rate : 1 509 kb/s
Channel(s) : 6 channels
Channel layout : C L R Ls Rs LFE
Sampling rate : 48.0 kHz
Frame rate : 93.750 FPS (512 SPF)
Bit depth : 24 bits
Compression mode : Lossy
Stream size : 1.17 GiB (2%)
Title : DTS 5.1 1509Kbps (Авторский, одноголосый - А. Гаврилов)
Language : Russian
Default : No
Forced : No

Audio #7
ID : 8
Format : DTS
Format/Info : Digital Theater Systems
Codec ID : A_DTS
Duration : 1 h 50 min
Bit rate mode : Constant
Bit rate : 1 509 kb/s
Channel(s) : 6 channels
Channel layout : C L R Ls Rs LFE
Sampling rate : 48.0 kHz
Frame rate : 93.750 FPS (512 SPF)
Bit depth : 24 bits
Compression mode : Lossy
Stream size : 1.17 GiB (2%)
Title : DTS 5.1 1509Kbps (Авторский, одноголосый - Ю. Живов)
Language : Russian
Default : No
Forced : No

Audio #8
ID : 9
Format : DTS
Format/Info : Digital Theater Systems
Codec ID : A_DTS
Duration : 1 h 50 min
Bit rate mode : Constant
Bit rate : 1 509 kb/s
Channel(s) : 6 channels
Channel layout : C L R Ls Rs LFE
Sampling rate : 48.0 kHz
Frame rate : 93.750 FPS (512 SPF)
Bit depth : 24 bits
Compression mode : Lossy
Stream size : 1.17 GiB (2%)
Title : DTS 5.1 1509Kbps (Оригинал - BluRay)
Language : English
Default : No
Forced : No

Audio #9
ID : 10
Format : E-AC-3
Format/Info : Enhanced AC-3
Commercial name : Dolby Digital Plus
Codec ID : A_EAC3
Duration : 1 h 50 min
Bit rate mode : Constant
Bit rate : 640 kb/s
Channel(s) : 6 channels
Channel layout : L R C LFE Ls Rs
Sampling rate : 48.0 kHz
Frame rate : 31.250 FPS (1536 SPF)
Compression mode : Lossy
Stream size : 507 MiB (1%)
Title : E-AC3 5.1 640Kpbs (Оригинал - Amazon)
Language : English
Service kind : Complete Main
Default : No
Forced : No

Text #1
ID : 11
Format : UTF-8
Codec ID : S_TEXT/UTF8
Codec ID/Info : UTF-8 Plain Text
Duration : 1 h 27 min
Bit rate : 6 b/s
Count of elements : 73
Stream size : 4.19 KiB (0%)
Title : Песни
Language : Russian
Default : Yes
Forced : Yes

Text #2
ID : 12
Format : UTF-8
Codec ID : S_TEXT/UTF8
Codec ID/Info : UTF-8 Plain Text
Duration : 1 h 47 min
Bit rate : 84 b/s
Count of elements : 1263
Stream size : 65.9 KiB (0%)
Title : Полные
Language : Russian
Default : No
Forced : No

Text #3
ID : 13
Format : UTF-8
Codec ID : S_TEXT/UTF8
Codec ID/Info : UTF-8 Plain Text
Duration : 1 h 43 min
Bit rate : 52 b/s
Count of elements : 1231
Stream size : 40.2 KiB (0%)
Title : BluRay
Language : English
Default : No
Forced : No

Text #4
ID : 14
Format : UTF-8
Codec ID : S_TEXT/UTF8
Codec ID/Info : UTF-8 Plain Text
Duration : 1 h 47 min
Bit rate : 59 b/s
Count of elements : 1123
Stream size : 47.0 KiB (0%)
Title : SDH, Amazon
Language : English
Default : No
Forced : No

Menu
00:00:00.000 : :Глава 01
00:03:00.000 : :Глава 02
00:06:00.000 : :Глава 03
00:09:00.000 : :Глава 04
00:12:00.000 : :Глава 05
00:15:00.000 : :Глава 06
00:18:00.000 : :Глава 07
00:21:00.000 : :Глава 08
00:24:00.000 : :Глава 09
00:27:00.000 : :Глава 10
00:30:00.000 : :Глава 11
00:33:00.000 : :Глава 12
00:36:00.000 : :Глава 13
00:39:00.000 : :Глава 14
00:42:00.000 : :Глава 15
00:45:00.000 : :Глава 16
00:48:00.000 : :Глава 17
00:51:00.000 : :Глава 18
00:54:00.000 : :Глава 19
00:57:00.000 : :Глава 20
01:00:00.000 : :Глава 21
01:03:00.000 : :Глава 22
01:06:00.000 : :Глава 23
01:09:00.000 : :Глава 24
01:12:00.000 : :Глава 25
01:15:00.000 : :Глава 26
01:18:00.000 : :Глава 27
01:21:00.000 : :Глава 28
01:24:00.000 : :Глава 29
01:27:00.000 : :Глава 30
01:30:00.000 : :Глава 31
01:33:00.000 : :Глава 32
01:36:00.000 : :Глава 33
01:39:00.000 : :Глава 34
01:42:00.000 : :Глава 35
01:45:00.000 : :Глава 36
01:48:00.000 : :Глава 37


QQ图片20210402135055.png

首发4K蓝光REMUX俄版资源,无视迅雷下载软件,推荐使用qBittorrent等下载软件,有条件的推荐115更好的下载软件!
首发经典影片,有能力字幕爱好的发烧友,请联系本楼主

PS:本链接由BDRemux.AI_+WEB-DL.AI_二个版本组成
偷天换日(110.42GB)Italian Job, The.2003.BBDRemux.AI_+WEB-DL.AI_UPSCAL_3840x2160_alq-11_SDR_Finalalang
游客,如果您要查看本帖隐藏内容请回复

1心,爱心.gif


回复

使用道具 举报

1

主题

1202

帖子

3611

积分

4K家园VIP

Rank: 9Rank: 9Rank: 9

积分
3611
发表于 5 天前 | 显示全部楼层
谢谢楼主
回复 支持 反对

使用道具 举报

0

主题

3503

帖子

9830

积分

4K家园VIP

Rank: 9Rank: 9Rank: 9

积分
9830
发表于 5 天前 | 显示全部楼层
太好啦&萬分感謝版主的無私發佈分享%
回复 支持 反对

使用道具 举报

2

主题

1141

帖子

3439

积分

4K家园VIP

Rank: 9Rank: 9Rank: 9

积分
3439
发表于 5 天前 | 显示全部楼层
前排顶起
回复 支持 反对

使用道具 举报

0

主题

54

帖子

2292

积分

注册会员

Rank: 2

积分
2292
发表于 5 天前 | 显示全部楼层
谢谢分享
回复

使用道具 举报

0

主题

1026

帖子

3092

积分

4K家园VIP

Rank: 9Rank: 9Rank: 9

积分
3092
发表于 5 天前 | 显示全部楼层
楼猪辛苦了,支持一下分享好资源
回复 支持 反对

使用道具 举报

48

主题

1375

帖子

3947

积分

4K家园VIP

Rank: 9Rank: 9Rank: 9

积分
3947
发表于 5 天前 来自手机 | 显示全部楼层
支持一下楼主,顶起来
回复 支持 反对

使用道具 举报

0

主题

281

帖子

2692

积分

4K家园VIP

Rank: 9Rank: 9Rank: 9

积分
2692
QQ
发表于 5 天前 | 显示全部楼层
谢谢楼主分享经典影片
回复 支持 反对

使用道具 举报

0

主题

10

帖子

146

积分

新手上路

Rank: 1

积分
146
发表于 5 天前 | 显示全部楼层
好片好片,谢谢楼主
回复 支持 反对

使用道具 举报

40

主题

1366

帖子

3860

积分

4K家园VIP

Rank: 9Rank: 9Rank: 9

积分
3860
发表于 4 天前 | 显示全部楼层
这个资源我记得是一套的,楼主还有没有
回复 支持 反对

使用道具 举报

您需要登录后才可以回帖 登录 | 立即注册

本版积分规则

精彩图文
Archiver|手机版|TAG|Sitemap|新帖|专题|联系我们:邮箱: 4kjia.com@gmail.com   

4k家园   ©2019