[4K电影] 混沌行走 /Chaos Walking (1990) 4K高清版本下载/大小15.20GB

[复制链接]

409

主题

423

帖子

4076

积分

4K家园VIP

Rank: 9Rank: 9Rank: 9

积分
4076
 楼主| 发表于 2021-4-2 19:52:54 | 显示全部楼层 |阅读模式
本帖最后由 最爱4K哟 于 2021-4-2 20:42 编辑

p2626247522.webp_副本.jpg

◎译  名 混沌行走/噪反(台)/混沌漫步/读心叛变(港)
◎片  名 Chaos Walking
◎年  代 2021
◎产  地 美国,加拿大
◎类  别 动作 / 科幻 / 冒险
◎语  言 英语
◎上映日期 2021(中国大陆) / 2021-03-05(美国)
◎IMDb评分 5.7/10 from 3589 users
◎IMDb链接 https://www.imdb.com/title/tt2076822/
◎豆瓣评分 5.8/10 from 375 users
◎豆瓣链接 https://movie.douban.com/subject/6874475/
◎片  长 109分钟
◎导  演 道格·里曼 Doug Liman
◎编  剧 帕特里克·内斯 Patrick Ness / 克里斯托弗·D·福特 Christopher D. Ford / 查理·考夫曼 Charlie Kaufman / 林赛·比尔 Lindsey Beer / 约翰·李·汉考克 John Lee Hancock / 加里·斯皮内利 Gary Spinelli / 安德鲁·戈特利布 Andrew Gottlieb / 大卫·罗森 David Rosen
◎主  演 汤姆·赫兰德 Tom Holland
      黛西·雷德利 Daisy Ridley
      德米安·比齐尔 Demián Bichir
      大卫·奥伊罗 David Oyelowo
      科特·萨特 Kurt Sutter
      辛西娅·艾莉佛 Cynthia Erivo
      贝瑟妮·安妮·林德 Bethany Anne Lind
      麦斯·米科尔森 Mads Mikkelsen
      尼克·乔纳斯 Nick Jonas
      雷·迈克金农 Ray McKinnon
      文森特·莱克莱尔 Vincent Leclerc
      布兰·克洛卡雷尔 Blane Crockarell
      蒂龙·本斯金 Tyrone Benskin
      弗兰克·方丹 Frank Fontaine
      帕特里克·加洛 Patrick Garrow
      玛丽莲·迪恩-罗比齐 Mylène Dinh-Robic
      朱利安·瑞钦斯 Julian Richings
      迈克尔·戴森 Michael Dyson
      马克斯韦尔·麦卡比-洛克斯 Maxwell McCabe-Lokos
      迈克尔·亚穆什 Michael Yarmush
      布莱恩·亚历山大 Brian Alexander
      奥妮克·阿德莉 Olunike Adeliyi
      克劳迪娅·贝索 Claudia Besso
      奥斯卡·贾恩那达 óscar Jaenada
      塔拉·尼科迪莫 Tara Nicodemo
      哈里森·奥斯特菲尔德 Harrison Osterfield


◎简  介

  人类在与地球相似的遥远外星建立了新家园,但这个星球上却有一种病毒,男人感染后可以听到其他人和动物的心声,每个男人脑子里的想法都能被他人听到,人与人之间不存在隐私,新星球上的普伦提司镇的男人们就不堪忍受自己的想法被人听见。

  托德·赫维特(汤姆·赫兰德 饰)是出生于这座小镇的 男孩,他的认知中小镇没有女人是因为该星球土著居民蓝光兽家园被人类侵犯时故意让人类感染了噪音病毒,他们还杀光了所有女性。托德对此深信不疑,直到他遇到一个女孩。

  托德在小镇附近的森林里遇到了一个叫维奥拉(黛西·雷德利 饰)的女孩,她来自遥远的地球,她的飞船因故坠毁在森林里,普伦提司镇的镇长在得知这个消息后立刻展开对他俩的追杀,托德为了保护女孩维奥拉只好一起出逃,开始了一段他意想不到且危机重重的星球冒险。

General
Complete name                  : Chaos.Walking.2021.2160p.AMZN.WEB-DL.x265.10bit.HDR10Plus.DDP5.1-CM\Chaos.Walking.2021.2160.AMZN.WEB-DL.DDP5.1.HDR.HEVC-CMRG.mkv
Format                         : Matroska
Format version                 : Version 4
File size                      : 11.6 GiB
Duration                       : 1 h 48 min
Overall bit rate               : 15.2 Mb/s
Encoded date                   : UTC 2021-04-01 23:23:46
Writing application            : mkvmerge v50.0.0 ('Awakenings') 64-bit
Writing library                : libebml v1.4.0 + libmatroska v1.6.2
IsTruncated                    : Yes

Video
ID                             : 1
Format                         : HEVC
Format/Info                    : High Efficiency Video Coding
Format profile                 : Main 10@L5@Main
HDR format                     : SMPTE ST 2094 App 4, Version 1, HDR10+ Profile B compatible
Codec ID                       : V_MPEGH/ISO/HEVC
Duration                       : 1 h 48 min
Bit rate                       : 14.3 Mb/s
Width                          : 3 840 pixels
Height                         : 1 600 pixels
Display aspect ratio           : 2.40:1
Frame rate mode                : Constant
Frame rate                     : 23.976 (24000/1001) FPS
Color space                    : YUV
Chroma subsampling             : 4:2:0
Bit depth                      : 10 bits
Bits/(Pixel*Frame)             : 0.097
Stream size                    : 10.9 GiB (94%)
Default                        : Yes
Forced                         : No
Color range                    : Limited
Color primaries                : BT.2020
Transfer characteristics       : PQ
Matrix coefficients            : BT.2020 non-constant
Mastering display color primar : Display P3
Mastering display luminance    : min: 0.0050 cd/m2, max: 1000 cd/m2
Maximum Content Light Level    : 1000 cd/m2
Maximum Frame-Average Light Le : 368 cd/m2

Audio
ID                             : 2
Format                         : E-AC-3
Format/Info                    : Enhanced AC-3
Commercial name                : Dolby Digital Plus
Codec ID                       : A_EAC3
Duration                       : 1 h 48 min
Bit rate mode                  : Constant
Bit rate                       : 640 kb/s
Channel(s)                     : 6 channels
Channel layout                 : L R C LFE Ls Rs
Sampling rate                  : 48.0 kHz
Frame rate                     : 31.250 FPS (1536 SPF)
Compression mode               : Lossy
Stream size                    : 498 MiB (4%)
Title                          : English
Language                       : English
Service kind                   : Complete Main
Default                        : No
Forced                         : No

Text #1
ID                             : 3
Format                         : UTF-8
Codec ID                       : S_TEXT/UTF8
Codec ID/Info                  : UTF-8 Plain Text
Title                          : English [SDH]
Language                       : English
Default                        : No
Forced                         : No

Text #2
ID                             : 4
Format                         : UTF-8
Codec ID                       : S_TEXT/UTF8
Codec ID/Info                  : UTF-8 Plain Text
Title                          : English
Language                       : English
Default                        : No
Forced                         : No


35089365953925517851_thumb.jpg 60064607286660021676_thumb.jpg 81158467669691933153_thumb.jpg



游客,如果您要查看本帖隐藏内容请回复





.

回复

使用道具 举报

2

主题

1256

帖子

3741

积分

4K家园VIP

Rank: 9Rank: 9Rank: 9

积分
3741
发表于 2021-4-2 19:53:22 | 显示全部楼层
分享的不错,希望楼主继续分享
回复 支持 反对

使用道具 举报

0

主题

3503

帖子

9830

积分

4K家园VIP

Rank: 9Rank: 9Rank: 9

积分
9830
发表于 2021-4-2 19:57:34 | 显示全部楼层
太好啦&萬分感謝版主的無私發佈分享%
回复 支持 反对

使用道具 举报

0

主题

418

帖子

1432

积分

注册会员

Rank: 2

积分
1432
发表于 2021-4-3 14:53:58 | 显示全部楼层
谢谢楼主分享
回复 支持 反对

使用道具 举报

2

主题

1577

帖子

4267

积分

4K家园VIP

Rank: 9Rank: 9Rank: 9

积分
4267
发表于 7 天前 | 显示全部楼层
感谢分享
回复 支持 反对

使用道具 举报

50

主题

1363

帖子

3907

积分

4K家园VIP

Rank: 9Rank: 9Rank: 9

积分
3907
发表于 昨天 09:43 | 显示全部楼层
路过
回复 支持 反对

使用道具 举报

您需要登录后才可以回帖 登录 | 立即注册

本版积分规则

精彩图文
Archiver|手机版|TAG|Sitemap|新帖|专题|联系我们:邮箱: 4kjia.com@gmail.com   

4k家园   ©2019