[4K UHD 蓝光原盘] 《明日边缘/Edge of Tomorrow (俄版)》4K蓝光REMUX 版本下载/57.48GB

[复制链接]

803

主题

827

帖子

1万

积分

超级版主

Rank: 8Rank: 8

积分
10704
 楼主| 发表于 4 天前 | 显示全部楼层 |阅读模式
22_副本_meitu_1.jpg

◎译  名 明日边缘/杀戮轮回/生死轮回/异空战士(港)/明日边界(台)
◎片  名 Edge of Tomorrow/We Mortals Are/All You Need Is Kill/Live Die Repeat:Edge of Tomorrow
◎年  代 2014
◎国  家 美国/加拿大
◎类  别 动作/科幻
◎语  言 国英双语
◎字  幕 中英双字
◎上映日期 2014-06-06(美国/中国大陆)
◎豆瓣评分 8.0/10 from 231673 users
◎豆瓣链接 https://movie.douban.com/subject/4746257/
◎文件格式 X264+AC3
◎视频尺寸 1920×1080
◎文件大小 5.77GB
◎片  长 113min
◎导  演 道格·里曼 Doug Liman
◎主  演 汤姆·克鲁斯 Tom Cruise
      艾米莉·布朗特 Emily Blunt
      布莱丹·格里森 Brendan Gleeson
      比尔·帕克斯顿 Bill Paxton
      约纳斯·阿姆斯特朗 Jonas Armstrong
      托尼·威 Tony Way
      奇克·盖瑞 Kick Gurry
      弗朗茨·德拉姆 Franz Drameh
      德拉戈米尔·米希克 Dragomir Mrsic
      夏洛特·莱利 Charlotte Riley
      羽田正义 Masayoshi Haneda
      特伦斯·梅纳德 Terence Maynard
      诺亚·泰勒 Noah Taylor
      拉腊·普尔弗 Lara Pulver
      玛德琳·曼托克 Madeleine Mantock

【电影简介】

  未来世界陷入外星人入侵的恐慌中,军事演说家凯奇少校(汤姆·克鲁斯 Tom Cruise 饰)畏惧上战场,他从没想过将军(布莱丹·格里森 Brendan Gleeson 饰)会让他去指挥即将开始的“诺曼底战役”,拒绝接受命令之后将军居然恶整了他,那就是把他当做逃兵扔进了军 营中。凯奇被归入了J小队中进行战斗,战役的第一天就惨死在战场,没想到这一死让他拥有了时空循环的能力,而唯一相信他的人就是被称为“全金属战士”的丽塔·沃拉塔斯基(艾米莉·布朗特 Emily Blunt 饰)。二人开始了时空循环作战,在训练凯奇的同时他们发现了控制时间的奥秘,这与外星人“主脑”欧米茄有关,但是唯一能取得胜利的方法就是让凯奇不断死去、不断重启时间。在不断重复登陆那天的战斗的同时,凯奇越来越不想失去丽塔……


Media Info
General

Complete name : 明日边缘(57.48GB)Edge of Tomorrow.2014.BDRemux.AI_UPSCAL_3840x2160_alq-11_SDR_Finalalang.mkv
Format : Matroska
Format version : Version 4
File size : 57.5 GiB
Duration : 1 h 53 min
Overall bit rate mode : Variable
Overall bit rate : 72.5 Mb/s
Encoded date : UTC 2021-03-10 14:59:16
Writing application : mkvmerge v55.0.0 ('Waiting For Space') 64-bit
Writing library : libebml v1.4.2 + libmatroska v1.6.4
Cover : Yes
Attachments : cover.jpg

Video
ID : 1
Format : AVC
Format/Info : Advanced Video Codec
Format profile : Baseline@L5.1
Format settings : 1 Ref Frames
Format settings, CABAC : No
Format settings, Reference fra : 1 frame
Format settings, GOP : M=1, N=12
Codec ID : V_MPEG4/ISO/AVC
Duration : 1 h 53 min
Bit rate : 63.2 Mb/s
Width : 3 840 pixels
Height : 2 160 pixels
Display aspect ratio : 16:9
Frame rate mode : Constant
Frame rate : 23.976 (24000/1001) FPS
Color space : YUV
Chroma subsampling : 4:2:0
Bit depth : 8 bits
Scan type : Progressive
Bits/(Pixel*Frame) : 0.318
Stream size : 50.1 GiB (87%)
Writing library : x264 core 157 r2970 5493be8
Encoding settings : cabac=0 / ref=1 / deblock=0:0:0 / analyse=0:0 / me=dia / subme=0 / psy=1 / psy_rd=1.00:0.00 / mixed_ref=0 / me_range=16 / chroma_me=1 / trellis=0 / 8x8dct=0 / cqm=0 / deadzone=21,11 / fast_pskip=1 / chroma_qp_offset=0 / threads=8 / lookahead_threads=1 / sliced_threads=0 / nr=0 / decimate=1 / interlaced=0 / bluray_compat=0 / constrained_intra=0 / bframes=0 / weightp=0 / keyint=12 / keyint_min=1 / scenecut=0 / intra_refresh=0 / rc=crf / mbtree=0 / crf=15.0 / qcomp=0.60 / qpmin=0 / qpmax=69 / qpstep=4 / ip_ratio=1.40 / aq=0
Default : Yes
Forced : No

Audio #1
ID : 2
Format : AC-3
Format/Info : Audio Coding 3
Commercial name : Dolby Digital
Codec ID : A_AC3
Duration : 1 h 53 min
Bit rate mode : Constant
Bit rate : 640 kb/s
Channel(s) : 6 channels
Channel layout : L R C LFE Ls Rs
Sampling rate : 48.0 kHz
Frame rate : 31.250 FPS (1536 SPF)
Compression mode : Lossy
Delay relative to video : 60 ms
Stream size : 520 MiB (1%)
Title : DUB, Blu-ray CEE
Language : Russian
Service kind : Complete Main
Default : Yes
Forced : Yes

Audio #2
ID : 3
Format : AC-3
Format/Info : Audio Coding 3
Commercial name : Dolby Digital
Codec ID : A_AC3
Duration : 1 h 53 min
Bit rate mode : Constant
Bit rate : 384 kb/s
Channel(s) : 6 channels
Channel layout : L R C LFE Ls Rs
Sampling rate : 48.0 kHz
Frame rate : 31.250 FPS (1536 SPF)
Compression mode : Lossy
Stream size : 312 MiB (1%)
Title : дублированный «iTunes Russia»
Language : Russian
Service kind : Complete Main
Default : No
Forced : Yes

Audio #3
ID : 4
Format : DTS
Format/Info : Digital Theater Systems
Codec ID : A_DTS
Duration : 1 h 53 min
Bit rate mode : Constant
Bit rate : 1 510 kb/s
Channel(s) : 6 channels
Channel layout : C L R Ls Rs LFE
Sampling rate : 48.0 kHz
Frame rate : 93.750 FPS (512 SPF)
Bit depth : 24 bits
Compression mode : Lossy
Stream size : 1.20 GiB (2%)
Title : одноголосый закадровый «Д. Есарев»
Language : Russian
Default : No
Forced : No

Audio #4
ID : 5
Format : DTS
Format/Info : Digital Theater Systems
Codec ID : A_DTS
Duration : 1 h 53 min
Bit rate mode : Constant
Bit rate : 1 509 kb/s
Channel(s) : 6 channels
Channel layout : C L R Ls Rs LFE
Sampling rate : 48.0 kHz
Frame rate : 93.750 FPS (512 SPF)
Bit depth : 24 bits
Compression mode : Lossy
Stream size : 1.20 GiB (2%)
Title : AVO, Y.Serbin
Language : Russian
Default : No
Forced : No

Audio #5
ID : 6
Format : DTS XLL
Format/Info : Digital Theater Systems
Commercial name : DTS-HD Master Audio
Codec ID : A_DTS
Duration : 1 h 53 min
Bit rate mode : Variable
Bit rate : 5 208 kb/s
Channel(s) : 8 channels
Channel layout : C L R LFE Lb Rb Lss Rss
Sampling rate : 48.0 kHz
Frame rate : 93.750 FPS (512 SPF)
Bit depth : 24 bits
Compression mode : Lossless
Stream size : 4.13 GiB (7%)
Language : English
Default : No
Forced : No

Text #1
ID : 7
Format : UTF-8
Codec ID : S_TEXT/UTF8
Codec ID/Info : UTF-8 Plain Text
Duration : 1 h 44 min
Bit rate : 1 b/s
Count of elements : 19
Stream size : 887 Bytes (0%)
Title : Forced
Language : Russian
Default : Yes
Forced : Yes

Text #2
ID : 8
Format : UTF-8
Codec ID : S_TEXT/UTF8
Codec ID/Info : UTF-8 Plain Text
Duration : 1 h 45 min
Bit rate : 86 b/s
Count of elements : 1443
Stream size : 67.1 KiB (0%)
Title : Full
Language : Russian
Default : No
Forced : No

Text #3
ID : 9
Format : PGS
Muxing mode : zlib
Codec ID : S_HDMV/PGS
Codec ID/Info : Picture based subtitle format used on BDs/HD-DVDs
Duration : 1 h 51 min
Bit rate : 644 b/s
Count of elements : 40
Stream size : 526 KiB (0%)
Language : Russian
Default : No
Forced : No

Text #4
ID : 10
Format : PGS
Muxing mode : zlib
Codec ID : S_HDMV/PGS
Codec ID/Info : Picture based subtitle format used on BDs/HD-DVDs
Duration : 1 h 53 min
Bit rate : 31.7 kb/s
Count of elements : 3026
Stream size : 25.7 MiB (0%)
Language : English
Default : No
Forced : No

Text #5
ID : 11
Format : UTF-8
Codec ID : S_TEXT/UTF8
Codec ID/Info : UTF-8 Plain Text
Duration : 1 h 45 min
Bit rate : 55 b/s
Count of elements : 1452
Stream size : 42.6 KiB (0%)
Title : Full
Language : English
Default : No
Forced : No

Menu
00:00:00.000 : :Глава 01
00:03:00.000 : :Глава 02
00:06:00.000 : :Глава 03
00:09:00.000 : :Глава 04
00:12:00.000 : :Глава 05
00:15:00.000 : :Глава 06
00:18:00.000 : :Глава 07
00:21:00.000 : :Глава 08
00:24:00.000 : :Глава 09
00:27:00.000 : :Глава 10
00:30:00.000 : :Глава 11
00:33:00.000 : :Глава 12
00:36:00.000 : :Глава 13
00:39:00.000 : :Глава 14
00:42:00.000 : :Глава 15
00:45:00.000 : :Глава 16
00:48:00.000 : :Глава 17
00:51:00.000 : :Глава 18
00:54:00.000 : :Глава 19
00:57:00.000 : :Глава 20
01:00:00.000 : :Глава 21
01:03:00.000 : :Глава 22
01:06:00.000 : :Глава 23
01:09:00.000 : :Глава 24
01:12:00.000 : :Глава 25
01:15:00.000 : :Глава 26
01:18:00.000 : :Глава 27
01:21:00.000 : :Глава 28
01:24:00.000 : :Глава 29
01:27:00.000 : :Глава 30
01:30:00.000 : :Глава 31
01:33:00.000 : :Глава 32
01:36:00.000 : :Глава 33
01:39:00.000 : :Глава 34
01:42:00.000 : :Глава 35
01:45:00.000 : :Глава 36
01:48:00.000 : :Глава 37
01:51:00.000 : :Глава 38


首发4K蓝光REMUX俄版资源,无视迅雷下载软件,推荐使用qBittorrent等下载软件,有条件的推荐115更好的下载软件!

首发经典影片,有能力字幕爱好的发烧友,请联系本楼主


明日边缘(57.48GB)Edge of Tomorrow.2014.BDRemux.AI_UPSCAL_3840x2160_alq-11_SDR_Finalalang
游客,如果您要查看本帖隐藏内容请回复



1心,爱心.gif
回复

使用道具 举报

2

主题

1588

帖子

4394

积分

4K家园VIP

Rank: 9Rank: 9Rank: 9

积分
4394
发表于 4 天前 | 显示全部楼层
感谢分享
回复 支持 反对

使用道具 举报

0

主题

3503

帖子

9830

积分

4K家园VIP

Rank: 9Rank: 9Rank: 9

积分
9830
发表于 4 天前 | 显示全部楼层
太好啦&萬分感謝版主的無私發佈分享%
回复 支持 反对

使用道具 举报

0

主题

5

帖子

22

积分

新手上路

Rank: 1

积分
22
发表于 4 天前 | 显示全部楼层
一定是要恢复在才能获取懂么得嘛
回复 支持 反对

使用道具 举报

0

主题

91

帖子

260

积分

新手上路

Rank: 1

积分
260
发表于 3 天前 | 显示全部楼层
谢谢楼主
回复

使用道具 举报

0

主题

281

帖子

2692

积分

4K家园VIP

Rank: 9Rank: 9Rank: 9

积分
2692
QQ
发表于 3 天前 | 显示全部楼层
谢谢楼主分享,辛苦了!
回复 支持 反对

使用道具 举报

0

主题

413

帖子

1414

积分

注册会员

Rank: 2

积分
1414
发表于 3 天前 | 显示全部楼层
谢谢楼主分享
回复 支持 反对

使用道具 举报

0

主题

1143

帖子

3443

积分

4K家园VIP

Rank: 9Rank: 9Rank: 9

积分
3443
发表于 3 天前 | 显示全部楼层
前排顶起
回复 支持 反对

使用道具 举报

0

主题

45

帖子

123

积分

新手上路

Rank: 1

积分
123
发表于 前天 06:46 | 显示全部楼层
楼主辛苦了,谢谢分享
回复 支持 反对

使用道具 举报

0

主题

281

帖子

2692

积分

4K家园VIP

Rank: 9Rank: 9Rank: 9

积分
2692
QQ
发表于 前天 07:42 | 显示全部楼层
谢谢楼主分享.辛苦了!
回复 支持 反对

使用道具 举报

您需要登录后才可以回帖 登录 | 立即注册

本版积分规则

精彩图文
Archiver|手机版|TAG|Sitemap|新帖|专题|联系我们:邮箱: 4kjia.com@gmail.com   

4k家园   ©2019