[4K电影] 生死狙击 Shooter (2007) 4K高清版本下载/大小13.67GB

[复制链接]

411

主题

425

帖子

4095

积分

4K家园VIP

Rank: 9Rank: 9Rank: 9

积分
4095
 楼主| 发表于 2021-4-3 22:08:57 | 显示全部楼层 |阅读模式
本帖最后由 最爱4K哟 于 2021-4-3 22:11 编辑

QQ图片20210403220737_副本_meitu_2.jpg

◎译  名 生死狙击 / Double Target / 狙击手 / 狙击生死线(台) / 神射手 / 辣手枪(港)
◎片  名 Shooter
◎年  代 2007
◎产  地 美国
◎类  别 动作 / 悬疑 / 惊悚 / 犯罪
◎语  言 英语
◎上映日期 2007-03-23(美国) / 2007-05-12(中国大陆)
◎IMDb评分 7.2/10 from 303568 users
◎IMDb链接 https://www.imdb.com/title/tt0822854
◎豆瓣评分 7.8/10 from 121541 users
◎豆瓣链接 https://movie.douban.com/subject/1947549/
◎片  长 124分钟
◎导  演 安东尼·福奎阿 Antoine Fuqua
◎编  剧 乔纳森·勒姆金 Jonathan Lemkin
◎主  演 马克·沃尔伯格 Mark Wahlberg
      凯特·玛拉 Kate Mara
      迈克尔·佩纳 Michael Pe?a
      丹尼·格洛弗 Danny Glover
      伊莱亚斯·科泰斯 Elias Koteas
      罗娜·迈特拉 Rhona Mitra



◎简  介

  这是一部谍中谍式的电影,不过主角换成了狙击手。美国退役优秀狙击手鲍勃(马克?沃尔伯格 Mark Wahlberg 饰)正在阿肯色州享受退役后的休闲时光,不料,平地生波,他的前上司前来拜访他,希望他能接受一项新的任务――在总统街头演讲那天充当隐形狙击手暗中保护总统。虽然十万分不情愿,但禁不住上司的游说,鲍勃最终答应了。总统演讲那天,鲍勃正在仔细观察着四周情况时,突然会场遭到枪手袭击,总统身边的衣索比亚主教被杀。鲍勃被当成暗杀者遭遇警方追捕。心知成了替罪羔羊,鲍勃在身中两枪的情况下奋力逃走了。鲍勃此时唯一的出路就是找出幕后的真凶,为自己洗刷罪名。

Video
ID : 1
Format : HEVC
Format/Info : High Efficiency Video Coding
Format profile : Main 10@L5@Main
HDR format : SMPTE ST 2094 App 4, Version 1, HDR10+ Profile B compatible
Codec ID : V_MPEGH/ISO/HEVC
Duration : 2 h 5 min
Bit rate : 14.9 Mb/s
Width : 3 840 pixels
Height : 1 600 pixels
Display aspect ratio : 2.40:1
Frame rate mode : Constant
Frame rate : 23.976 (24000/1001) FPS
Color space : YUV
Chroma subsampling : 4:2:0
Bit depth : 10 bits
Bits/(Pixel*Frame) : 0.101
Stream size : 13.1 GiB (96%)
Default : Yes
Forced : No
Color range : Limited
Color primaries : BT.2020
Transfer characteristics : PQ
Matrix coefficients : BT.2020 non-constant
Mastering display color primaries : Display P3
Mastering display luminance : min: 0.0001 cd/m2, max: 1000 cd/m2
Maximum Content Light Level : 1000 cd/m2
Maximum Frame-Average Light Level : 468 cd/m2

Audio
ID : 2
Format : E-AC-3
Format/Info : Enhanced AC-3
Commercial name : Dolby Digital Plus
Codec ID : A_EAC3
Duration : 2 h 5 min
Bit rate mode : Constant
Bit rate : 640 kb/s
Channel(s) : 6 channels
Channel layout : L R C LFE Ls Rs
Sampling rate : 48.0 kHz
Frame rate : 31.250 FPS (1536 SPF)
Compression mode : Lossy
Stream size : 575 MiB (4%)
Title : DDP 5.1
Language : English
Service kind : Complete Main
Default : No
Forced : No

Text
ID : 3
Format : UTF-8
Codec ID : S_TEXT/UTF8
Codec ID/Info : UTF-8 Plain Text
Duration : 1 h 56 min
Bit rate : 56 b/s
Count of elements : 1443
Stream size : 48.6 KiB (0%)
Title : SRT
Language : English
Default : Yes
Forced : No

Menu
00:00:00.000 : en:Chapter 01
00:08:12.450 : en:Chapter 02
00:16:21.939 : en:Chapter 03
00:23:12.599 : en:Chapter 04
00:31:36.269 : en:Chapter 05
00:39:01.964 : en:Chapter 06
00:44:24.537 : en:Chapter 07
00:51:26.458 : en:Chapter 08
00:57:51.635 : en:Chapter 09
01:05:08.946 : en:Chapter 10
01:11:43.841 : en:Chapter 11
01:18:00.342 : en:Chapter 12
01:23:31.548 : en:Chapter 13
01:29:56.182 : en:Chapter 14
01:36:00.046 : en:Chapter 15
01:39:56.031 : en:Chapter 16
01:50:08.018 : en:Chapter 17
01:55:30.465 : en:Chapter 18
02:00:28.262 : en:Chapter 19

30580183568400681712_thumb.png 40757857256629979332_thumb.png 74786512812607658293_thumb.png


游客,如果您要查看本帖隐藏内容请回复



.

回复

使用道具 举报

1

主题

1215

帖子

3661

积分

4K家园VIP

Rank: 9Rank: 9Rank: 9

积分
3661
发表于 2021-4-3 22:09:20 | 显示全部楼层
高手云集 果断围观
回复 支持 反对

使用道具 举报

0

主题

100

帖子

1163

积分

注册会员

Rank: 2

积分
1163
发表于 7 天前 | 显示全部楼层
洗牌4K!
回复

使用道具 举报

0

主题

41

帖子

242

积分

新手上路

Rank: 1

积分
242
发表于 7 天前 | 显示全部楼层
没金币了怎么办?
回复 支持 反对

使用道具 举报

0

主题

2

帖子

13

积分

新手上路

Rank: 1

积分
13
发表于 7 天前 | 显示全部楼层
好东西·感谢分享…………!
回复 支持 反对

使用道具 举报

0

主题

3

帖子

18

积分

新手上路

Rank: 1

积分
18
发表于 7 天前 | 显示全部楼层
感谢楼主,谢谢分享
回复 支持 反对

使用道具 举报

0

主题

14

帖子

85

积分

新手上路

Rank: 1

积分
85
发表于 7 天前 | 显示全部楼层
goodgoodgood
回复 支持 反对

使用道具 举报

0

主题

1196

帖子

3604

积分

4K家园VIP

Rank: 9Rank: 9Rank: 9

积分
3604
发表于 7 天前 | 显示全部楼层
前排,哇咔咔
回复 支持 反对

使用道具 举报

0

主题

1

帖子

9

积分

新手上路

Rank: 1

积分
9
发表于 6 天前 | 显示全部楼层
感谢分享。


回复

使用道具 举报

0

主题

418

帖子

1432

积分

注册会员

Rank: 2

积分
1432
发表于 4 天前 | 显示全部楼层
谢谢楼主分享
回复 支持 反对

使用道具 举报

您需要登录后才可以回帖 登录 | 立即注册

本版积分规则

精彩图文
Archiver|手机版|TAG|Sitemap|新帖|专题|联系我们:邮箱: 4kjia.com@gmail.com   

4k家园   ©2019