[4K电影] [4K首发资源]1号苦力 / Coolie No. 1(2020) 4K高清下载/10.01G

[复制链接]

411

主题

425

帖子

4095

积分

4K家园VIP

Rank: 9Rank: 9Rank: 9

积分
4095
 楼主| 发表于 7 天前 | 显示全部楼层 |阅读模式
本帖最后由 最爱4K哟 于 2021-4-4 19:33 编辑

p2566875938.webp_副本.jpg

◎译  名 1号苦力◎片  名 Coolie No. 1
◎年  代 2020
◎国  家 印度
◎类  别 喜剧
◎语  言 印地语
◎上映日期   2020-12-25(印度)
◎片  长 134分钟30秒
◎导  演 David Dhawan
◎主  演 瓦伦·达瓦
                   萨拉·阿里·汗  
                   帕莱什·拉瓦尔  
                  乔尼·里沃  
                  拉兹巴·亚达夫
                  Pujita Ponnada
                  婆罗门·安达姆
                  Nalneesh Neel
                  Bharti Achrekar




◎简      介 :


  有两个女儿的印度果阿富豪,对贫穷提婚者和中介百般羞辱。愤愤不平的中介,决定开展报复。于是将火车站帮人提行李的1号苦力伪装成新加坡国王的儿子,到富豪家提亲。1号苦力与小女儿、机械师与大女儿,萌生爱意。发现问题的富豪,追赶过来,却遇到国王被不孝儿子刺杀,决定认1号苦力为子的故事。

Mediainfo:-
General
Unique ID : 154141689546347326569948708643573652095 (0x73F69C0BF71A3441AF264C5CF790DA7F)
Complete name : Coolie.No.1.2020.SDR.2160p.AMZN.WEB-DL.DDP5.1.HEVC-Telly.mkv
Format : Matroska
Format version : Version 4 / Version 2
File size : 10.0 GiB
Duration : 2 h 14 min
Overall bit rate : 10.7 Mb/s
Movie name : Telly
Encoded date : UTC 2021-01-09 21:50:05
Writing application : mkvmerge v51.0.0 ('I Wish') 64-bit
Writing library : libebml v1.4.0 + libmatroska v1.6.2
Attachments : photo_2021-01-07_21-14-01.jpg

Video
ID : 1
Format : HEVC
Format/Info : High Efficiency Video Coding
Format profile : [email protected]@Main
Codec ID : V_MPEGH/ISO/HEVC
Duration : 2 h 14 min
Bit rate : 10.0 Mb/s
Width : 3 840 pixels
Height : 1 632 pixels
Display aspect ratio : 2.35:1
Frame rate mode : Constant
Frame rate : 24.000 FPS
Standard : NTSC
Color space : YUV
Chroma subsampling : 4:2:0
Bit depth : 8 bits
Bits/(Pixel*Frame) : 0.067
Stream size : 9.41 GiB (94%)
Writing library : x265 2.9_elemental+1-9e0607aa5b6f:[Linux][GCC 4.8.5][64 bit] 8bit+10bit+12bit
Encoding settings : cpuid=1111039 / frame-threads=2 / wpp / no-pmode / no-pme / psnr / ssim / log-level=2 / csv / csv-log-level=2 / input-csp=1 / input-res=3840x1632 / interlace=0 / total-frames=0 / level-idc=50 / high-tier=1 / uhd-bd=0 / ref=5 / no-allow-non-conformance / no-repeat-headers / annexb / no-aud / no-hrd / info / hash=0 / no-temporal-layers / no-open-gop / min-keyint=61 / keyint=120 / gop-lookahead=0 / bframes=8 / b-adapt=2 / b-pyramid / bframe-bias=0 / rc-lookahead=120 / lookahead-slices=4 / scenecut=0 / radl=0 / no-intra-refresh / ctu=64 / min-cu-size=8 / rect / amp / max-tu-size=32 / tu-inter-depth=4 / tu-intra-depth=4 / limit-tu=4 / rdoq-level=2 / dynamic-rd=0.00 / no-ssim-rd / signhide / tskip / nr-intra=100 / nr-inter=600 / no-constrained-intra / strong-intra-smoothing / max-merge=3 / limit-refs=3 / limit-modes / me=3 / subme=3 / merange=57 / temporal-mvp / weightp / weightb / no-analyze-src-pics / deblock=0:0 / no-sao / no-sao-non-deblock / rd=4 / no-early-skip / no-rskip / no-fast-intra / tskip-fast / no-cu-lossless / b-intra / no-splitrd-skip / rdpenalty=0 / psy-rd=4.00 / psy-rdoq=10.00 / no-rd-refine / no-lossless / cbqpoffs=0 / crqpoffs=0 / rc=crf / crf=25.0 / qcomp=0.60 / qpstep=1 / stats-write=0 / stats-read=0 / vbv-maxrate=15000 / vbv-bufsize=20000 / vbv-init=0.9 / crf-max=0.0 / crf-min=0.0 / ipratio=1.10 / pbratio=1.00 / aq-mode=0 / aq-strength=1.50 / no-cutree / zone-count=0 / no-strict-cbr / qg-size=32 / rc-grain / qpmax=69 / qpmin=0 / const-vbv / sar=255 / sar-width / : / sar-height=799:800 / overscan=0 / videoformat=2 / range=0 / colorprim=1 / transfer=1 / colormatrix=1 / chromaloc=0 / display-window=0 / max-cll=0,0 / min-luma=0 / max-luma=255 / log2-max-poc-lsb=8 / vui-timing-info / vui-hrd-info / slices=1 / opt-qp-pps / no-opt-ref-list-length-pps / no-multi-pass-opt-rps / scenecut-bias=0.05 / no-opt-cu-delta-qp / no-aq-motion / no-hdr / no-hdr-opt / no-dhdr10-opt / no-idr-recovery-sei / analysis-reuse-level=5 / scale-factor=0 / refine-intra=0 / refine-inter=0 / refine-mv=0 / no-limit-sao / ctu-info=0 / no-lowpass-dct / refine-mv-type=0 / copy-pic=1 / max-ausize-factor=1.0 / no-dynamic-refine / no-single-sei
Default : Yes
Forced : No
Color range : Limited
Color primaries : BT.709
Transfer characteristics : BT.709
Matrix coefficients : BT.709

Audio
ID : 2
Format : E-AC-3
Format/Info : Enhanced Audio Coding 3
Format settings, Endianness : Big
Codec ID : A_EAC3
Duration : 2 h 14 min
Bit rate mode : Constant
Bit rate : 640 kb/s
Channel(s) : 6 channels
Channel positions : Front: L C R, Side: L R, LFE
Sampling rate : 48.0 kHz
Frame rate : 187.500 FPS (256 spf)
Compression mode : Lossy
Stream size : 616 MiB (6%)
Title : Hindi
Language : Hindi
Default : No
Forced : No

Text #1
ID : 3
Format : UTF-8
Codec ID : S_TEXT/UTF8
Codec ID/Info : UTF-8 Plain Text
Duration : 2 h 12 min
Bit rate : 69 b/s
Count of elements : 2539
Stream size : 67.6 KiB (0%)
Title : English [SDH]
Language : English
Default : No
Forced : No

Text #2
ID : 4
Format : UTF-8
Codec ID : S_TEXT/UTF8
Codec ID/Info : UTF-8 Plain Text
Duration : 2 h 12 min
Bit rate : 69 b/s
Count of elements : 2538
Stream size : 67.6 KiB (0%)
Title : English
Language : English
Default : No
Forced : No



360se_picture (1).png 360se_picture (2).png 360se_picture (3).png 360se_picture (4).png 360se_picture (5).png 360se_picture.png


游客,如果您要查看本帖隐藏内容请回复




.
回复

使用道具 举报

1

主题

1197

帖子

3609

积分

4K家园VIP

Rank: 9Rank: 9Rank: 9

积分
3609
发表于 7 天前 来自手机 | 显示全部楼层
1v1飘过
回复 支持 反对

使用道具 举报

0

主题

3522

帖子

9862

积分

4K家园VIP

Rank: 9Rank: 9Rank: 9

积分
9862
发表于 7 天前 | 显示全部楼层
太好啦&萬分感謝版主的無私發佈分享%
回复 支持 反对

使用道具 举报

1

主题

3

帖子

194

积分

4K家园VIP

Rank: 9Rank: 9Rank: 9

积分
194
发表于 7 天前 | 显示全部楼层
字幕字幕字幕
回复 支持 反对

使用道具 举报

49

主题

1357

帖子

3931

积分

4K家园VIP

Rank: 9Rank: 9Rank: 9

积分
3931
发表于 6 天前 | 显示全部楼层
前排支持下
回复 支持 反对

使用道具 举报

1

主题

197

帖子

4476

积分

中级会员

Rank: 4

积分
4476
发表于 6 天前 | 显示全部楼层
感謝版主的無私發佈分享
回复 支持 反对

使用道具 举报

0

主题

45

帖子

123

积分

新手上路

Rank: 1

积分
123
发表于 6 天前 | 显示全部楼层
谢谢楼主分享,楼主好人一生平安
回复 支持 反对

使用道具 举报

0

主题

1236

帖子

3570

积分

4K家园VIP

Rank: 9Rank: 9Rank: 9

积分
3570
发表于 5 天前 | 显示全部楼层
求沙发
回复 支持 反对

使用道具 举报

0

主题

8

帖子

25

积分

新手上路

Rank: 1

积分
25
发表于 5 天前 | 显示全部楼层
印度电影还是挺不错的
回复 支持 反对

使用道具 举报

0

主题

1226

帖子

3512

积分

4K家园VIP

Rank: 9Rank: 9Rank: 9

积分
3512
发表于 4 天前 | 显示全部楼层
体验下4K版的
回复 支持 反对

使用道具 举报

您需要登录后才可以回帖 登录 | 立即注册

本版积分规则

精彩图文
Archiver|手机版|TAG|Sitemap|新帖|专题|联系我们:邮箱: 4kjia.com@gmail.com   

4k家园   ©2019