[4K测试视频] [国家地理] 胜巴伦(2020)[2160P/MKV/422MB]

[复制链接]

2262

主题

2551

帖子

2万

积分

超级版主

Rank: 8Rank: 8

积分
21144
 楼主| 发表于 3 天前 | 显示全部楼层 |阅读模式
本帖最后由 叽里呱啦 于 2021-4-4 20:22 编辑

胜巴伦(2020)WEBRip 2160p.txt.mkv_20210404_201304.729.jpg 胜巴伦(2020)WEBRip 2160p.txt.mkv_20210404_201335.233.jpg 胜巴伦(2020)WEBRip 2160p.txt.mkv_20210404_201342.626.jpg 胜巴伦(2020)WEBRip 2160p.txt.mkv_20210404_201353.337.jpg 胜巴伦(2020)WEBRip 2160p.txt.mkv_20210404_201405.249.jpg 胜巴伦(2020)WEBRip 2160p.txt.mkv_20210404_201420.113.jpg

有关信息
标题: Sembalun
发行年份: 2020

类型: 种类
导演: Putranji Akhyar

关于电影:

         Sembalun是一个海拔1000米的村庄,几乎完全被陡峭的山丘环绕。温度明显低于Lombok的其他地区,这也使走路很方便。由于Sembalun村位于Rinjani火山脚下,土壤丰富而肥沃,这使农业迅速发展,构成了该村的经济基础。村庄的两边都有大米,辣椒,胡萝卜,白菜和洋葱以及香料。海拔1000米处,几乎完全被陡峭的山丘环绕。温度明显低于Lombok的其他地区,这也使走路很方便。由于Sembalun村位于Rinjani火山脚下,土壤丰富而肥沃,这使农业迅速发展,构成了该村的经济基础。在村庄的两边都有大米,辣椒,胡萝卜,白菜和洋葱等食物,几乎所有森巴伦的人都是农民。


General
Complete name                  : J:\胜巴伦(2020)WEBRip 2160p.txt.mkv
Format                         : Matroska
Format version                 : Version 4
File size                      : 422 MiB
Duration                       : 3 min 15 s
Overall bit rate               : 18.1 Mb/s
Encoded date                   : UTC 2021-01-26 18:11:13
Writing application            : mkvmerge v52.0.0 ('Secret For The Mad') 64-bit
Writing library                : libebml v1.4.1 + libmatroska v1.6.2 / Lavf58.29.100

Video
ID                             : 1
Format                         : VP9
Codec ID                       : V_VP9
Duration                       : 3 min 15 s
Bit rate                       : 18.0 Mb/s
Width                          : 3 840 pixels
Height                         : 2 160 pixels
Display aspect ratio           : 16:9
Frame rate mode                : Constant
Frame rate                     : 30.000 FPS
Color space                    : YUV
Bits/(Pixel*Frame)             : 0.072
Stream size                    : 419 MiB (99%)
Default                        : Yes
Forced                         : No
Color range                    : Limited
Color primaries                : BT.709
Transfer characteristics       : BT.709
Matrix coefficients            : BT.709

Audio
ID                             : 2
Format                         : Opus
Codec ID                       : A_OPUS
Duration                       : 3 min 15 s
Bit rate                       : 129 kb/s
Channel(s)                     : 2 channels
Channel layout                 : L R
Sampling rate                  : 48.0 kHz
Frame rate                     : 50.004 FPS (960 SPF)
Compression mode               : Lossy
Stream size                    : 3.01 MiB (1%)
Default                        : Yes
Forced                         : No



胜巴伦(422MB)(2020)WEBRip 2160p.torrent (17.5 KB, 售价: 9 金币)
回复

使用道具 举报

0

主题

1035

帖子

3083

积分

4K家园VIP

Rank: 9Rank: 9Rank: 9

积分
3083
发表于 3 天前 | 显示全部楼层
报告!别开枪,我就是路过来看看的。。。
回复 支持 反对

使用道具 举报

0

主题

3503

帖子

9830

积分

4K家园VIP

Rank: 9Rank: 9Rank: 9

积分
9830
发表于 3 天前 | 显示全部楼层
胜巴伦4k
回复

使用道具 举报

您需要登录后才可以回帖 登录 | 立即注册

本版积分规则

精彩图文
Archiver|手机版|TAG|Sitemap|新帖|专题|联系我们:邮箱: 4kjia.com@gmail.com   

4k家园   ©2019