2020 Little Big - 性爱机器 4k [2160P /MP4/238MB

[复制链接]

2263

主题

2552

帖子

2万

积分

超级版主

Rank: 8Rank: 8

积分
21158
 楼主| 发表于 5 天前 | 显示全部楼层 |阅读模式
Little Big - 性爱机器.mkv_20210405_201419.298.jpg Little Big - 性爱机器.mkv_20210405_201426.994.jpg Little Big - 性爱机器.mkv_20210405_201438.562.jpg Little Big - 性爱机器.mkv_20210405_201443.306.jpg Little Big - 性爱机器.mkv_20210405_201504.698.jpg Little Big - 性爱机器.mkv_20210405_201452.954.jpg

General
Complete name                  : 最新下载MV\Little Big - 性爱机器.mkv
Format                         : Matroska
Format version                 : Version 4
File size                      : 407 MiB
Duration                       : 3 min 13 s
Overall bit rate               : 17.6 Mb/s
Encoded date                   : UTC 2021-03-08 09:53:33
Writing application            : mkvmerge v51.0.0 ('I Wish') 64-bit
Writing library                : libebml v1.4.0 + libmatroska v1.6.2

Video
ID                             : 1
Format                         : VP9
Codec ID                       : V_VP9
Duration                       : 3 min 13 s
Bit rate                       : 16.2 Mb/s
Width                          : 3 840 pixels
Height                         : 2 024 pixels
Display aspect ratio           : 1.897
Frame rate mode                : Constant
Frame rate                     : 25.000 FPS
Color space                    : YUV
Bits/(Pixel*Frame)             : 0.083
Stream size                    : 374 MiB (92%)
Language                       : English
Default                        : Yes
Forced                         : No
Color range                    : Limited
Color primaries                : BT.709
Transfer characteristics       : BT.709
Matrix coefficients            : BT.709

Audio
ID                             : 2
Format                         : PCM
Format settings                : Little / Signed
Codec ID                       : A_PCM/INT/LIT
Duration                       : 3 min 13 s
Bit rate mode                  : Constant
Bit rate                       : 1 411.2 kb/s
Channel(s)                     : 2 channels
Sampling rate                  : 44.1 kHz
Frame rate                     : 5.003 FPS (8815 SPF)
Bit depth                      : 16 bits
Stream size                    : 32.6 MiB (8%)
Default                        : Yes
Forced                         : No


提供更多(4K、8K)高品质MV、演示片等珍藏版视频,需要的联系本楼主。
网盘下载失效不补:链接: https://pan.baidu.com/s/1jKSLkAgapdiMHZZhFaHeyQ 提取码:
****此区域为收费内容****    需支付 15 金币后可查看立即购买




.
回复

使用道具 举报

0

主题

1026

帖子

3092

积分

4K家园VIP

Rank: 9Rank: 9Rank: 9

积分
3092
发表于 5 天前 | 显示全部楼层
4K版的应该更清晰吧
回复 支持 反对

使用道具 举报

0

主题

1252

帖子

3570

积分

4K家园VIP

Rank: 9Rank: 9Rank: 9

积分
3570
发表于 10 小时前 来自手机 | 显示全部楼层
你们要是有4K资源记得分享,别小气
回复 支持 反对

使用道具 举报

您需要登录后才可以回帖 登录 | 立即注册

本版积分规则

精彩图文
Archiver|手机版|TAG|Sitemap|新帖|专题|联系我们:邮箱: 4kjia.com@gmail.com   

4k家园   ©2019