2021 ONF - 我的名字是(Pre-Release MV) 4k [2160P /MP4/449MB

[复制链接]

2262

主题

2551

帖子

2万

积分

超级版主

Rank: 8Rank: 8

积分
21144
 楼主| 发表于 前天 10:07 | 显示全部楼层 |阅读模式
本帖最后由 叽里呱啦 于 2021-4-8 12:15 编辑

ONF - 我的名字是(Pre-Release MV) 4k.mp4_20210405_203747.160.jpg ONF - 我的名字是(Pre-Release MV) 4k.mp4_20210405_203753.601.jpg ONF - 我的名字是(Pre-Release MV) 4k.mp4_20210405_203800.096.jpg ONF - 我的名字是(Pre-Release MV) 4k.mp4_20210405_203806.048.jpg ONF - 我的名字是(Pre-Release MV) 4k.mp4_20210405_203812.914.jpg ONF - 我的名字是(Pre-Release MV) 4k.mp4_20210405_203832.328.jpg

General
Complete name                  : 最新下载MV\ONF - 我的名字是(Pre-Release MV) 4k.mp4
Format                         : MPEG-4
Format profile                 : Base Media
Codec ID                       : isom (isom/iso2/avc1/mp41)
File size                      : 450 MiB
Duration                       : 3 min 24 s
Overall bit rate               : 18.5 Mb/s
Writing application            : Lavf58.12.100
exvr                           : EX1.8.2(C1.0.9)

Video
ID                             : 1
Format                         : AVC
Format/Info                    : Advanced Video Codec
Format profile                 : High@L5.1
Format settings                : CABAC / 4 Ref Frames
Format settings, CABAC         : Yes
Format settings, Reference fra : 4 frames
Codec ID                       : avc1
Codec ID/Info                  : Advanced Video Coding
Duration                       : 3 min 24 s
Bit rate                       : 18.3 Mb/s
Width                          : 3 840 pixels
Height                         : 2 160 pixels
Display aspect ratio           : 16:9
Frame rate mode                : Constant
Frame rate                     : 23.976 (23976/1000) FPS
Color space                    : YUV
Chroma subsampling             : 4:2:0
Bit depth                      : 8 bits
Scan type                      : Progressive
Bits/(Pixel*Frame)             : 0.092
Stream size                    : 445 MiB (99%)
Color range                    : Limited
Color primaries                : BT.709
Transfer characteristics       : BT.709
Matrix coefficients            : BT.709
Codec configuration box        : avcC

Audio
ID                             : 2
Format                         : AAC LC
Format/Info                    : Advanced Audio Codec Low Complexity
Codec ID                       : mp4a-40-2
Duration                       : 3 min 24 s
Duration_LastFrame             : -1 ms
Bit rate mode                  : Constant
Bit rate                       : 192 kb/s
Channel(s)                     : 2 channels
Channel layout                 : L R
Sampling rate                  : 48.0 kHz
Frame rate                     : 46.875 FPS (1024 SPF)
Compression mode               : Lossy
Stream size                    : 4.67 MiB (1%)
Default                        : Yes
Alternate group                : 1


提供更多(4K、8K、16K、19K)高品质MV、演示片等珍藏版视频,需要的联系本楼主。
网盘下载失效不补:链接: https://pan.baidu.com/s/12dpaqZaCNHs55Y4LLmhPcw 提取码:
****此区域为收费内容****    需支付 15 金币后可查看立即购买


.
回复

使用道具 举报

2

主题

1129

帖子

3403

积分

4K家园VIP

Rank: 9Rank: 9Rank: 9

积分
3403
发表于 前天 10:07 来自手机 | 显示全部楼层
支持支持再支持
回复 支持 反对

使用道具 举报

0

主题

3503

帖子

9830

积分

4K家园VIP

Rank: 9Rank: 9Rank: 9

积分
9830
发表于 前天 12:45 | 显示全部楼层
太好啦&萬分感謝版主的無私發佈分享%
回复 支持 反对

使用道具 举报

0

主题

1543

帖子

4235

积分

4K家园VIP

Rank: 9Rank: 9Rank: 9

积分
4235
发表于 前天 17:01 | 显示全部楼层
我了个去,顶了
回复 支持 反对

使用道具 举报

2

主题

1014

帖子

3008

积分

4K家园VIP

Rank: 9Rank: 9Rank: 9

积分
3008
发表于 前天 19:03 | 显示全部楼层
向楼主学习
回复 支持 反对

使用道具 举报

0

主题

413

帖子

1414

积分

注册会员

Rank: 2

积分
1414
发表于 前天 22:02 | 显示全部楼层
谢谢楼主分享!
回复 支持 反对

使用道具 举报

44

主题

1326

帖子

3822

积分

4K家园VIP

Rank: 9Rank: 9Rank: 9

积分
3822
发表于 昨天 17:44 | 显示全部楼层
大人,此事必有蹊跷!
回复 支持 反对

使用道具 举报

1

主题

1230

帖子

3712

积分

4K家园VIP

Rank: 9Rank: 9Rank: 9

积分
3712
发表于 11 小时前 | 显示全部楼层
体验下4K版的
回复 支持 反对

使用道具 举报

您需要登录后才可以回帖 登录 | 立即注册

本版积分规则

精彩图文
Archiver|手机版|TAG|Sitemap|新帖|专题|联系我们:邮箱: 4kjia.com@gmail.com   

4k家园   ©2019