[体育竞技] 2020-2021联曼城(英格兰)VS多特蒙德(德国) 冠军联赛 4K@50fps

[复制链接]

2262

主题

2551

帖子

2万

积分

超级版主

Rank: 8Rank: 8

积分
21144
 楼主| 发表于 3 天前 | 显示全部楼层 |阅读模式
本帖最后由 叽里呱啦 于 2021-4-8 12:04 编辑

3724b54c5b033ebcb58841bda605723e.png VS 39ff2ae647fe90ff3fdca8134486884e.png

日期:2021年4月6日
运动:足球
时间:0时55分36秒+○时53分24秒
评论语言:丹麦


rue9ea6a56025.jpg

简介:“曼彻斯特城”有义务赢得比赛,并且要赢得更大的胜利。任何其他针对此类国家的结果都可以视为失败。本赛季,曼城是一支没有弱点的球队,看上去几乎是无敌的,尽管发生了罕见的失误,但多特蒙德将有机会重蹈曼联,托特纳姆或莱斯特的成功,这是唯一能够做到的在阿提哈德击败了约瑟夫·瓜迪奥拉的指控-微不足道。考虑到多特蒙德的比赛危机,加顿·桑乔的失利加剧了这一点,因此不值得期待的是,爱丁·特尔西奇的团队至少可以在某些方面与城市对抗,除非“镇民”自己给自己带来了很多麻烦。 。比较瓜迪奥拉和泰尔兹奇的教练素质以及球员的个人水平是没有道理的。在所有方面,白俄罗斯都逊于曼城,

General

Complete name                  : Champions League 2020-21. 1-4 final. Manchester City — Borussia Dortmund (UHD)\1.mkv
Format                         : Matroska
Format version                 : Version 4
File size                      : 6.34 GiB
Duration                       : 55 min 36 s
Overall bit rate               : 16.3 Mb/s
Encoded date                   : UTC 2021-04-06 20:36:03
Writing application            : mkvmerge v55.0.0 ('Waiting For Space') 64-bit
Writing library                : libebml v1.4.2 + libmatroska v1.6.4
IsTruncated                    : Yes

Video
ID                             : 1
Format                         : HEVC
Format/Info                    : High Efficiency Video Coding
Format profile                 : Main@L5.1@Main
Codec ID                       : V_MPEGH/ISO/HEVC
Duration                       : 55 min 36 s
Bit rate                       : 15.6 Mb/s
Width                          : 3 840 pixels
Height                         : 2 160 pixels
Display aspect ratio           : 16:9
Frame rate mode                : Constant
Frame rate                     : 50.000 FPS
Color space                    : YUV
Chroma subsampling             : 4:2:0
Bit depth                      : 8 bits
Bits/(Pixel*Frame)             : 0.038
Stream size                    : 6.07 GiB (96%)
Default                        : Yes
Forced                         : No
Color range                    : Limited
Color primaries                : BT.709
Transfer characteristics       : BT.709
Matrix coefficients            : BT.709

Audio
ID                             : 2
Format                         : AC-3
Format/Info                    : Audio Coding 3
Commercial name                : Dolby Digital
Codec ID                       : A_AC3
Duration                       : 55 min 36 s
Bit rate mode                  : Constant
Bit rate                       : 384 kb/s
Channel(s)                     : 6 channels
Channel layout                 : L R C LFE Ls Rs
Sampling rate                  : 48.0 kHz
Frame rate                     : 31.250 FPS (1536 SPF)
Compression mode               : Lossy
Delay relative to video        : -933 ms
Stream size                    : 153 MiB (2%)
Service kind                   : Complete Main
Default                        : Yes
Forced                         : No

General

Complete name                  :Champions League 2020-21. 1-4 final. Manchester City — Borussia Dortmund (UHD)\2.mkv
Format                         : Matroska
Format version                 : Version 4
File size                      : 6.10 GiB
Duration                       : 53 min 24 s
Overall bit rate               : 16.4 Mb/s
Encoded date                   : UTC 2021-04-07 06:59:39
Writing application            : mkvmerge v55.0.0 ('Waiting For Space') 64-bit
Writing library                : libebml v1.4.2 + libmatroska v1.6.4

Video
ID                             : 1
Format                         : HEVC
Format/Info                    : High Efficiency Video Coding
Format profile                 : Main@L5.1@Main
Codec ID                       : V_MPEGH/ISO/HEVC
Duration                       : 53 min 24 s
Bit rate                       : 15.7 Mb/s
Width                          : 3 840 pixels
Height                         : 2 160 pixels
Display aspect ratio           : 16:9
Frame rate mode                : Constant
Frame rate                     : 50.000 FPS
Color space                    : YUV
Chroma subsampling             : 4:2:0
Bit depth                      : 8 bits
Bits/(Pixel*Frame)             : 0.038
Stream size                    : 5.84 GiB (96%)
Default                        : Yes
Forced                         : No
Color range                    : Limited
Color primaries                : BT.709
Transfer characteristics       : BT.709
Matrix coefficients            : BT.709

Audio
ID                             : 2
Format                         : AC-3
Format/Info                    : Audio Coding 3
Commercial name                : Dolby Digital
Codec ID                       : A_AC3
Duration                       : 53 min 24 s
Bit rate mode                  : Constant
Bit rate                       : 384 kb/s
Channel(s)                     : 6 channels
Channel layout                 : L R C LFE Ls Rs
Sampling rate                  : 48.0 kHz
Frame rate                     : 31.250 FPS (1536 SPF)
Compression mode               : Lossy
Delay relative to video        : -1 s 13 ms
Stream size                    : 147 MiB (2%)
Service kind                   : Complete Main
Default                        : Yes
Forced                         : No

1.mkv_20210408_115935.244.jpg 1.mkv_20210408_115945.972.jpg 1.mkv_20210408_120002.307.jpg 1.mkv_20210408_120008.571.jpg 1.mkv_20210408_120118.868.jpg
2.mkv_20210408_114320.954.jpg 2.mkv_20210408_114407.907.jpg 2.mkv_20210408_114420.434.jpg 2.mkv_20210408_114552.402.jpg 2.mkv_20210408_114608.522.jpg


游客,如果您要查看本帖隐藏内容请回复



.

回复

使用道具 举报

1

主题

1191

帖子

3395

积分

4K家园VIP

Rank: 9Rank: 9Rank: 9

积分
3395
发表于 3 天前 | 显示全部楼层
不错 支持一个了
回复 支持 反对

使用道具 举报

0

主题

3503

帖子

9830

积分

4K家园VIP

Rank: 9Rank: 9Rank: 9

积分
9830
发表于 3 天前 | 显示全部楼层
2020-2021歐冠英格兰曼城vs德国多特蒙德4k@50fps
回复 支持 反对

使用道具 举报

0

主题

31

帖子

4601

积分

中级会员

Rank: 4

积分
4601
发表于 3 天前 | 显示全部楼层
谢谢分享~~~~~~~~~~~~~
回复

使用道具 举报

0

主题

2

帖子

13

积分

新手上路

Rank: 1

积分
13
发表于 3 天前 | 显示全部楼层
感谢楼主分享
回复 支持 反对

使用道具 举报

1

主题

1232

帖子

3540

积分

4K家园VIP

Rank: 9Rank: 9Rank: 9

积分
3540
发表于 前天 05:55 | 显示全部楼层
小白一个 顶一下
回复 支持 反对

使用道具 举报

1

主题

1232

帖子

3550

积分

4K家园VIP

Rank: 9Rank: 9Rank: 9

积分
3550
发表于 前天 11:30 | 显示全部楼层
鄙视楼下的顶帖没我快,哈哈
回复 支持 反对

使用道具 举报

0

主题

1077

帖子

3243

积分

4K家园VIP

Rank: 9Rank: 9Rank: 9

积分
3243
发表于 前天 17:05 来自手机 | 显示全部楼层
我也顶起出售广告位
回复 支持 反对

使用道具 举报

0

主题

192

帖子

1305

积分

4K家园VIP

Rank: 9Rank: 9Rank: 9

积分
1305
QQ
发表于 昨天 08:43 | 显示全部楼层
楼主辛苦了,谢谢楼主,感谢楼主分享,楼主好人一生平安!!!
回复 支持 反对

使用道具 举报

0

主题

2

帖子

60

积分

新手上路

Rank: 1

积分
60
发表于 昨天 15:49 | 显示全部楼层
谢谢楼主分享
回复 支持 反对

使用道具 举报

您需要登录后才可以回帖 登录 | 立即注册

本版积分规则

精彩图文
Archiver|手机版|TAG|Sitemap|新帖|专题|联系我们:邮箱: 4kjia.com@gmail.com   

4k家园   ©2019