[4K UHD 蓝光原盘] 《捕梦网 / Dreamcatcher(2003) (俄版)》4K高清版本下载/73.56GB

[复制链接]

833

主题

864

帖子

1万

积分

超级版主

Rank: 8Rank: 8

积分
11087
 楼主| 发表于 2021-4-29 11:34:37 | 显示全部楼层 |阅读模式
本帖最后由 没完没了 于 2021-5-3 21:25 编辑

QQ图片20210409133848_副本_meitu_8.jpg

◎译  名 捕梦网 / 劫梦惊魂 / 捉梦人 / 漏网之灵(港)
◎片  名 Dreamcatcher
◎年  代 2003
◎产  地 美国
◎类  别 剧情 / 科幻 / 恐怖
◎语  言 英语
◎上映日期 2003-03-21(美国)
◎IMDb评分  5.5/10 from 88160 users
◎片  长 136分钟
◎导  演 劳伦斯·卡斯丹 Lawrence Kasdan
◎编  剧 斯蒂芬·金 Stephen King / 威廉姆·高德曼 William Goldman / 劳伦斯·卡斯丹 Lawrence Kasdan
◎主  演 摩根·弗里曼 Morgan Freeman
       托马斯·简 Thomas Jane
       杰森·李 Jason Lee
       戴米恩·路易斯 Damian Lewis
       蒂莫西·奥利芬特 Timothy Olyphant
       汤姆·塞兹摩尔 Tom Sizemore
       唐尼·沃尔伯格 Donnie Wahlberg
       里斯·汤普森 Reece Thompson
       乔尔·帕尔默 Joel Palmer
       埃里克·李塞德 Eric Keenleyside
       萝丝玛丽·邓斯莫尔 Rosemary Dunsmore
       迈克尔·奥尼尔 Michael O'Neill
       达林·克利梅克 Darrin Klimek
       C.恩斯特·哈斯 C. Ernst Harth
       英格丽德·卡维拉尔斯 Ingrid Kavelaars
       兰斯·金赛 Lance Kinsey
       乔恩·卡斯丹 Jon Kasden
       T.J. Riley
       Dion Johnstone
       Ryan DeBoer
       Michael Daingerfield
       Alex Campbell
       John Moore
       坎贝尔·莱恩 Campbell Lane



◎简  介  

  一个偏僻的小镇上,四个小男孩共同在一个废弃车站救了一个智障男孩,由此各自获得了神秘的能力。此后的25年里,四个人长大成人、各奔东西,但在每年的狩猎季节仍要重聚在缅因州的森林里度假,一起重温童年的快乐。又到了一年聚会的时候,四人到了森林,却被一场暴风雪困住,与此同时降临的还有一些来自外星的古怪生物,四个人逐渐了解到,外星生物想要对人类展开控制,而当地驻军的遏制方案是连同小镇所有人一起毁灭。四人果断参与进这起事件,开始寻找儿时的能力,试图打退外星人,拯救当地平民……


Media Info
General
Complete name : Dreamcatcher.2003.BDRemux.AI_UPSCALE_3840x2160_alq-12_SDR_Finalalang
Format : Matroska
Format version : Version 4
File size : 73.6 GiB
Duration : 2 h 13 min
Overall bit rate mode : Variable
Overall bit rate : 78.7 Mb/s
Encoded date : UTC 2021-04-01 14:00:03
Writing application : mkvmerge v55.0.0 ('Waiting For Space') 64-bit
Writing library : libebml v1.4.2 + libmatroska v1.6.4

Video
ID : 1
Format : HEVC
Format/Info : High Efficiency Video Coding
Format profile : Main@L5.2@Main
Codec ID : V_MPEGH/ISO/HEVC
Duration : 2 h 13 min
Bit rate : 62.3 Mb/s
Width : 3 840 pixels
Height : 2 160 pixels
Display aspect ratio : 16:9
Frame rate mode : Constant
Frame rate : 23.976 (24000/1001) FPS
Color space : YUV
Chroma subsampling : 4:2:0
Bit depth : 8 bits
Bits/(Pixel*Frame) : 0.313
Stream size : 58.2 GiB (79%)
Language : English
Default : Yes
Forced : No

Audio #1
ID : 2
Format : AC-3
Format/Info : Audio Coding 3
Commercial name : Dolby Digital
Codec ID : A_AC3
Duration : 2 h 13 min
Bit rate mode : Constant
Bit rate : 192 kb/s
Channel(s) : 2 channels
Channel layout : L R
Sampling rate : 48.0 kHz
Frame rate : 31.250 FPS (1536 SPF)
Compression mode : Lossy
Stream size : 184 MiB (0%)
Language : Russian
Service kind : Complete Main
Default : Yes
Forced : Yes

Audio #2
ID : 3
Format : AC-3
Format/Info : Audio Coding 3
Commercial name : Dolby Digital
Codec ID : A_AC3
Duration : 2 h 13 min
Bit rate mode : Constant
Bit rate : 448 kb/s
Channel(s) : 6 channels
Channel layout : L R C LFE Ls Rs
Sampling rate : 48.0 kHz
Frame rate : 31.250 FPS (1536 SPF)
Compression mode : Lossy
Stream size : 428 MiB (1%)
Language : Russian
Service kind : Complete Main
Default : No
Forced : No

Audio #3
ID : 4
Format : AC-3
Format/Info : Audio Coding 3
Commercial name : Dolby Digital
Codec ID : A_AC3
Duration : 2 h 13 min
Bit rate mode : Constant
Bit rate : 192 kb/s
Channel(s) : 2 channels
Channel layout : L R
Sampling rate : 48.0 kHz
Frame rate : 31.250 FPS (1536 SPF)
Compression mode : Lossy
Stream size : 184 MiB (0%)
Language : Russian
Service kind : Complete Main
Default : No
Forced : No

Audio #4
ID : 5
Format : AC-3
Format/Info : Audio Coding 3
Commercial name : Dolby Digital
Codec ID : A_AC3
Duration : 2 h 13 min
Bit rate mode : Constant
Bit rate : 192 kb/s
Channel(s) : 2 channels
Channel layout : L R
Sampling rate : 48.0 kHz
Frame rate : 31.250 FPS (1536 SPF)
Compression mode : Lossy
Stream size : 184 MiB (0%)
Language : Russian
Service kind : Complete Main
Default : No
Forced : No

Audio #5
ID : 6
Format : AC-3
Format/Info : Audio Coding 3
Commercial name : Dolby Digital
Codec ID : A_AC3
Duration : 2 h 8 min
Bit rate mode : Constant
Bit rate : 256 kb/s
Channel(s) : 6 channels
Channel layout : L R C LFE Ls Rs
Sampling rate : 48.0 kHz
Frame rate : 31.250 FPS (1536 SPF)
Compression mode : Lossy
Stream size : 236 MiB (0%)
Language : Russian
Service kind : Complete Main
Default : No
Forced : No

Audio #6
ID : 7
Format : DTS XLL
Format/Info : Digital Theater Systems
Commercial name : DTS-HD Master Audio
Codec ID : A_DTS
Duration : 2 h 13 min
Bit rate mode : Variable
Bit rate : 3 755 kb/s
Channel(s) : 6 channels
Channel layout : C L R Ls Rs LFE
Sampling rate : 48.0 kHz
Frame rate : 93.750 FPS (512 SPF)
Bit depth : 24 bits
Compression mode : Lossless
Stream size : 3.51 GiB (5%)
Language : Russian
Default : No
Forced : No

Audio #7
ID : 8
Format : DTS XLL
Format/Info : Digital Theater Systems
Commercial name : DTS-HD Master Audio
Codec ID : A_DTS
Duration : 2 h 13 min
Bit rate mode : Variable
Bit rate : 3 764 kb/s
Channel(s) : 6 channels
Channel layout : C L R Ls Rs LFE
Sampling rate : 48.0 kHz
Frame rate : 93.750 FPS (512 SPF)
Bit depth : 24 bits
Compression mode : Lossless
Stream size : 3.52 GiB (5%)
Language : Russian
Default : No
Forced : No

Audio #8
ID : 9
Format : DTS XLL
Format/Info : Digital Theater Systems
Commercial name : DTS-HD Master Audio
Codec ID : A_DTS
Duration : 2 h 13 min
Bit rate mode : Variable
Bit rate : 3 756 kb/s
Channel(s) : 6 channels
Channel layout : C L R Ls Rs LFE
Sampling rate : 48.0 kHz
Frame rate : 93.750 FPS (512 SPF)
Bit depth : 24 bits
Compression mode : Lossless
Stream size : 3.51 GiB (5%)
Language : Russian
Default : No
Forced : No

Audio #9
ID : 10
Format : AC-3
Format/Info : Audio Coding 3
Commercial name : Dolby Digital
Codec ID : A_AC3
Duration : 2 h 13 min
Bit rate mode : Constant
Bit rate : 128 kb/s
Channel(s) : 2 channels
Channel layout : L R
Sampling rate : 48.0 kHz
Frame rate : 31.250 FPS (1536 SPF)
Compression mode : Lossy
Stream size : 122 MiB (0%)
Language : Russian
Service kind : Complete Main
Default : No
Forced : No

Audio #10
ID : 11
Format : DTS XLL
Format/Info : Digital Theater Systems
Commercial name : DTS-HD Master Audio
Codec ID : A_DTS
Duration : 2 h 13 min
Bit rate mode : Variable
Bit rate : 3 727 kb/s
Channel(s) : 6 channels
Channel layout : C L R Ls Rs LFE
Sampling rate : 48.0 kHz
Frame rate : 93.750 FPS (512 SPF)
Bit depth : 24 bits
Compression mode : Lossless
Stream size : 3.48 GiB (5%)
Language : English
Default : No
Forced : No

Text #1
ID : 12
Format : PGS
Muxing mode : zlib
Codec ID : S_HDMV/PGS
Codec ID/Info : Picture based subtitle format used on BDs/HD-DVDs
Duration : 1 h 40 min
Bit rate : 341 b/s
Count of elements : 30
Stream size : 251 KiB (0%)
Language : Russian
Default : No
Forced : No

Text #2
ID : 13
Format : PGS
Muxing mode : zlib
Codec ID : S_HDMV/PGS
Codec ID/Info : Picture based subtitle format used on BDs/HD-DVDs
Duration : 2 h 10 min
Bit rate : 20.9 kb/s
Count of elements : 2166
Stream size : 19.6 MiB (0%)
Language : Russian
Default : No
Forced : No

Text #3
ID : 14
Format : PGS
Muxing mode : zlib
Codec ID : S_HDMV/PGS
Codec ID/Info : Picture based subtitle format used on BDs/HD-DVDs
Duration : 2 h 10 min
Bit rate : 25.4 kb/s
Count of elements : 2416
Stream size : 23.8 MiB (0%)
Language : English
Default : No
Forced : No

Menu
00:00:00.000 : :Глава 01
00:03:00.000 : :Глава 02
00:06:00.000 : :Глава 03
00:09:00.000 : :Глава 04
00:12:00.000 : :Глава 05
00:15:00.000 : :Глава 06
00:18:00.000 : :Глава 07
00:21:00.000 : :Глава 08
00:24:00.000 : :Глава 09
00:27:00.000 : :Глава 10
00:30:00.000 : :Глава 11
00:33:00.000 : :Глава 12
00:36:00.000 : :Глава 13
00:39:00.000 : :Глава 14
00:42:00.000 : :Глава 15
00:45:00.000 : :Глава 16
00:48:00.000 : :Глава 17
00:51:00.000 : :Глава 18
00:54:00.000 : :Глава 19
00:57:00.000 : :Глава 20
01:00:00.000 : :Глава 21
01:03:00.000 : :Глава 22
01:06:00.000 : :Глава 23
01:09:00.000 : :Глава 24
01:12:00.000 : :Глава 25
01:15:00.000 : :Глава 26
01:18:00.000 : :Глава 27
01:21:00.000 : :Глава 28
01:24:00.000 : :Глава 29
01:27:00.000 : :Глава 30
01:30:00.000 : :Глава 31
01:33:00.000 : :Глава 32
01:36:00.000 : :Глава 33
01:39:00.000 : :Глава 34
01:42:00.000 : :Глава 35
01:45:00.000 : :Глава 36
01:48:00.000 : :Глава 37
01:51:00.000 : :Глава 38
01:54:00.000 : :Глава 39
01:57:00.000 : :Глава 40
02:00:00.000 : :Глава 41
02:03:00.000 : :Глава 42
02:06:00.000 : :Глава 43
02:09:00.000 : :Глава 44
02:12:00.000 : :Глава 45



首发4K蓝光REMUX俄版资源,迅雷下载无资源,资源被和谐时,推荐使用qBittorrent等下载软件,有条件的推荐115更好的下载软件!
PS:首发经典影片,有能力字幕爱好的发烧友,请联系本楼主


捕梦网(73.56GB)Dreamcatcher.2003.BDRemux.AI_UPSCALE_3840x2160_alq-12_SDR_Finalalang
游客,如果您要查看本帖隐藏内容请回复


1心,爱心.gif


回复

使用道具 举报

0

主题

17

帖子

1639

积分

4K家园VIP

Rank: 9Rank: 9Rank: 9

积分
1639
发表于 2021-4-30 12:36:49 | 显示全部楼层
链接在哪里??
回复 支持 1 反对 0

使用道具 举报

0

主题

5

帖子

1636

积分

4K家园VIP

Rank: 9Rank: 9Rank: 9

积分
1636
发表于 2021-4-30 06:09:28 | 显示全部楼层
链接在哪里??
回复 支持 1 反对 0

使用道具 举报

0

主题

1259

帖子

3611

积分

中级会员

Rank: 4

积分
3611
发表于 2021-4-29 11:35:27 | 显示全部楼层
感谢分享
回复 支持 反对

使用道具 举报

0

主题

3990

帖子

1万

积分

4K家园VIP

Rank: 9Rank: 9Rank: 9

积分
10706
发表于 2021-4-29 11:44:32 | 显示全部楼层
捕夢網4k
回复

使用道具 举报

0

主题

1043

帖子

3143

积分

4K家园VIP

Rank: 9Rank: 9Rank: 9

积分
3143
发表于 2021-4-29 17:09:06 | 显示全部楼层
楼猪辛苦了,支持一下分享好资源
回复 支持 反对

使用道具 举报

1

主题

1233

帖子

3715

积分

4K家园VIP

Rank: 9Rank: 9Rank: 9

积分
3715
发表于 2021-4-30 03:33:25 | 显示全部楼层
感谢分享
回复 支持 反对

使用道具 举报

1

主题

1201

帖子

3451

积分

4K家园VIP

Rank: 9Rank: 9Rank: 9

积分
3451
发表于 2021-4-30 16:19:04 来自手机 | 显示全部楼层
4K家园资源不错,前排支持
回复 支持 反对

使用道具 举报

0

主题

1229

帖子

3701

积分

4K家园VIP

Rank: 9Rank: 9Rank: 9

积分
3701
发表于 2021-4-30 17:46:47 | 显示全部楼层
4K家园资源不错,前排支持
回复 支持 反对

使用道具 举报

0

主题

2

帖子

707

积分

4K家园VIP

Rank: 9Rank: 9Rank: 9

积分
707
QQ
发表于 2021-4-30 22:22:34 | 显示全部楼层
捕梦网 / Dreamcatcher(2003)
回复 支持 反对

使用道具 举报

您需要登录后才可以回帖 登录 | 立即注册

本版积分规则

精彩图文
Archiver|手机版|TAG|Sitemap|新帖|专题|联系我们:邮箱: 4kjia.com@gmail.com   

4k家园   ©2019