[4K记录视频] [国家地理] 缅甸生活 4K(2021)[2160P/MKV/559MB]

[复制链接]

2291

主题

2584

帖子

2万

积分

超级版主

Rank: 8Rank: 8

积分
21534
 楼主| 发表于 2021-4-17 10:30:00 | 显示全部楼层 |阅读模式

缅甸生活(559MB)(2019)WE​​BRip 2160p.mkv_20210416_100754.712.jpg 缅甸生活(559MB)(2019)WE​​BRip 2160p.mkv_20210416_100817.735.jpg 缅甸生活(559MB)(2019)WE​​BRip 2160p.mkv_20210416_100841.808.jpg 缅甸生活(559MB)(2019)WE​​BRip 2160p.mkv_20210416_100912.432.jpg

有关信息
标题:《缅甸生活》
国家/地区:缅甸
时长: 00 : 03 : 30
发行年: 2019
类型: 种类
导演: theroutefilms

关于电影:

        缅甸无疑是亚洲最热情好客的国家之一。僧侣,庙宇和宝塔定义了在全国范围内看到的精神光环。



General
Unique ID                      : 160360849308793816796512846069951212915 (0x78A4604BF6C3D58094178767C1D5AD73)
Complete name                  : D:\360安全浏览器下载\国家地理\缅甸生活(559MB)(2019)WE​​BRip 2160p.mkv
Format                         : Matroska
Format version                 : Version 4
File size                      : 559 MiB
Duration                       : 3 min 30 s
Overall bit rate               : 22.3 Mb/s
Encoded date                   : UTC 2021-03-03 09:41:28
Writing application            : mkvmerge v54.0.0 ('F Maj Pixie') 64-bit
Writing library                : libebml v1.4.2 + libmatroska v1.6.3

Video
ID                             : 1
Format                         : AVC
Format/Info                    : Advanced Video Codec
Format profile                 : High@L5.2
Format settings                : CABAC / 5 Ref Frames
Format settings, CABAC         : Yes
Format settings, Reference fra : 5 frames
Codec ID                       : V_MPEG4/ISO/AVC
Duration                       : 3 min 30 s
Bit rate                       : 22.0 Mb/s
Width                          : 3 840 pixels
Height                         : 1 632 pixels
Display aspect ratio           : 2.35:1
Frame rate mode                : Constant
Frame rate                     : 25.000 FPS
Color space                    : YUV
Chroma subsampling             : 4:2:0
Bit depth                      : 8 bits
Scan type                      : Progressive
Bits/(Pixel*Frame)             : 0.141
Stream size                    : 553 MiB (99%)
Writing library                : x264 core 157 r10 d4099dd
Encoding settings              : cabac=1 / ref=5 / deblock=1:0:0 / analyse=0x3:0x113 / me=hex / subme=8 / psy=1 / psy_rd=1.00:0.00 / mixed_ref=1 / me_range=16 / chroma_me=1 / trellis=2 / 8x8dct=1 / cqm=0 / deadzone=21,11 / fast_pskip=1 / chroma_qp_offset=-2 / threads=48 / lookahead_threads=8 / sliced_threads=0 / nr=0 / decimate=1 / interlaced=0 / bluray_compat=0 / stitchable=1 / constrained_intra=0 / bframes=3 / b_pyramid=2 / b_adapt=2 / b_bias=0 / direct=3 / weightb=1 / open_gop=0 / weightp=2 / keyint=infinite / keyint_min=25 / scenecut=40 / intra_refresh=0 / rc_lookahead=50 / rc=crf / mbtree=1 / crf=20.0 / qcomp=0.60 / qpmin=5 / qpmax=69 / qpstep=4 / vbv_maxrate=24200 / vbv_bufsize=66000 / crf_max=0.0 / nal_hrd=none / filler=0 / ip_ratio=1.40 / aq=1:1.00
Default                        : Yes
Forced                         : No
Color range                    : Limited
Color primaries                : BT.709
Transfer characteristics       : BT.709
Matrix coefficients            : BT.709

Audio
ID                             : 2
Format                         : AAC LC
Format/Info                    : Advanced Audio Codec Low Complexity
Codec ID                       : A_AAC-2
Duration                       : 3 min 30 s
Bit rate                       : 253 kb/s
Channel(s)                     : 2 channels
Channel layout                 : L R
Sampling rate                  : 48.0 kHz
Frame rate                     : 46.875 FPS (1024 SPF)
Compression mode               : Lossy
Stream size                    : 6.35 MiB (1%)
Default                        : Yes
Forced                         : No



游客,如果您要查看本帖隐藏内容请回复


.
回复

使用道具 举报

1

主题

1539

帖子

4157

积分

4K家园VIP

Rank: 9Rank: 9Rank: 9

积分
4157
发表于 2021-4-17 10:31:06 | 显示全部楼层
回复 支持 反对

使用道具 举报

0

主题

3990

帖子

1万

积分

4K家园VIP

Rank: 9Rank: 9Rank: 9

积分
10706
发表于 2021-4-17 10:41:41 | 显示全部楼层
缅甸生活4k
回复 支持 反对

使用道具 举报

0

主题

19

帖子

77

积分

新手上路

Rank: 1

积分
77
发表于 2021-4-17 12:21:36 | 显示全部楼层
楼主有没有4K柬埔寨
回复 支持 反对

使用道具 举报

0

主题

8

帖子

30

积分

新手上路

Rank: 1

积分
30
发表于 2021-4-17 12:30:54 | 显示全部楼层
楼主有没有4K柬埔寨
回复 支持 反对

使用道具 举报

0

主题

2

帖子

13

积分

新手上路

Rank: 1

积分
13
发表于 2021-4-17 14:02:03 | 显示全部楼层
测试一下新电视
回复 支持 反对

使用道具 举报

0

主题

5

帖子

18

积分

新手上路

Rank: 1

积分
18
发表于 2021-4-17 16:20:36 | 显示全部楼层
是不是都要收费?
回复 支持 反对

使用道具 举报

0

主题

11

帖子

45

积分

新手上路

Rank: 1

积分
45
发表于 2021-4-17 16:45:06 | 显示全部楼层
6666666666666666666666666
回复 支持 反对

使用道具 举报

0

主题

3

帖子

12

积分

新手上路

Rank: 1

积分
12
发表于 2021-4-17 18:11:51 | 显示全部楼层
顶!!!
回复

使用道具 举报

0

主题

64

帖子

384

积分

新手上路

Rank: 1

积分
384
发表于 2021-4-17 19:11:27 | 显示全部楼层
谢谢楼主的分享!
回复 支持 反对

使用道具 举报

您需要登录后才可以回帖 登录 | 立即注册

本版积分规则

精彩图文
Archiver|手机版|TAG|Sitemap|新帖|专题|联系我们:邮箱: 4kjia.com@gmail.com   

4k家园   ©2019