[4K记录视频] [国家地理] 多米尼加纳-蓝色之外的土地(2020)[2160P/MKV/570MB]

[复制链接]

2291

主题

2584

帖子

2万

积分

超级版主

Rank: 8Rank: 8

积分
21534
 楼主| 发表于 2021-4-19 10:30:00 | 显示全部楼层 |阅读模式

多米尼加纳-蓝色之外的土地(718MB)(2020)WEBRip 2160p.mkv_20210416_102752.144.j.jpg 多米尼加纳-蓝色之外的土地(718MB)(2020)WEBRip 2160p.mkv_20210416_102809.440.j.jpg 多米尼加纳-蓝色之外的土地(718MB)(2020)WEBRip 2160p.mkv_20210416_102858.705.j.jpg 多米尼加纳-蓝色之外的土地(718MB)(2020)WEBRip 2160p.mkv_20210416_102921.744.j.jpg 多米尼加纳-蓝色之外的土地(718MB)(2020)WEBRip 2160p.mkv_20210416_102932.761.j.jpg

关于电影
标题:多米尼加纳-蓝色以外的土地
发行年份: 2020
国家/地区:多米尼加共和国
时长: 00:04 : 13
类型: 种类
导演:奥利弗·阿斯特罗洛格

关于电影:

      戴上耳机,坐下来,放松,让自己沉浸其中跟随音乐的节奏,在真正的加勒比海生活方式中探索文化,艺术和非同寻常的殖民建筑之地!


General
Complete name                  : 国家地理\多米尼加纳-蓝色之外的土地(718MB)(2020)WEBRip 2160p.mkv
Format                         : Matroska
Format version                 : Version 4
File size                      : 719 MiB
Duration                       : 4 min 13 s
Overall bit rate               : 23.8 Mb/s
Encoded date                   : UTC 2021-03-03 11:33:52
Writing application            : mkvmerge v54.0.0 ('F Maj Pixie') 64-bit
Writing library                : libebml v1.4.2 + libmatroska v1.6.3

Video
ID                             : 1
Format                         : AVC
Format/Info                    : Advanced Video Codec
Format profile                 : High@L5.2
Format settings                : CABAC / 5 Ref Frames
Format settings, CABAC         : Yes
Format settings, Reference fra : 5 frames
Codec ID                       : V_MPEG4/ISO/AVC
Duration                       : 4 min 13 s
Bit rate                       : 23.5 Mb/s
Width                          : 3 840 pixels
Height                         : 2 160 pixels
Display aspect ratio           : 16:9
Frame rate mode                : Constant
Frame rate                     : 25.000 FPS
Color space                    : YUV
Chroma subsampling             : 4:2:0
Bit depth                      : 8 bits
Scan type                      : Progressive
Bits/(Pixel*Frame)             : 0.113
Stream size                    : 711 MiB (99%)
Writing library                : x264 core 159 r10 1771b55
Encoding settings              : cabac=1 / ref=5 / deblock=1:0:0 / analyse=0x3:0x113 / me=hex / subme=8 / psy=1 / psy_rd=1.00:0.00 / mixed_ref=1 / me_range=16 / chroma_me=1 / trellis=2 / 8x8dct=1 / cqm=0 / deadzone=21,11 / fast_pskip=1 / chroma_qp_offset=-2 / threads=48 / lookahead_threads=8 / sliced_threads=0 / nr=0 / decimate=1 / interlaced=0 / bluray_compat=0 / stitchable=1 / constrained_intra=0 / bframes=3 / b_pyramid=2 / b_adapt=2 / b_bias=0 / direct=3 / weightb=1 / open_gop=0 / weightp=2 / keyint=infinite / keyint_min=25 / scenecut=40 / intra_refresh=0 / rc_lookahead=50 / rc=crf / mbtree=1 / crf=20.0 / qcomp=0.60 / qpmin=5 / qpmax=69 / qpstep=4 / vbv_maxrate=24200 / vbv_bufsize=66000 / crf_max=0.0 / nal_hrd=none / filler=0 / ip_ratio=1.40 / aq=1:1.00
Default                        : Yes
Forced                         : No
Color range                    : Limited
Color primaries                : BT.709
Transfer characteristics       : BT.709
Matrix coefficients            : BT.709

Audio
ID                             : 2
Format                         : AAC LC
Format/Info                    : Advanced Audio Codec Low Complexity
Codec ID                       : A_AAC-2
Duration                       : 4 min 13 s
Bit rate                       : 253 kb/s
Channel(s)                     : 2 channels
Channel layout                 : L R
Sampling rate                  : 48.0 kHz
Frame rate                     : 46.875 FPS (1024 SPF)
Compression mode               : Lossy
Stream size                    : 7.67 MiB (1%)
Default                        : Yes
Forced                         : No



游客,如果您要查看本帖隐藏内容请回复



.
回复

使用道具 举报

56

主题

1413

帖子

4095

积分

4K家园VIP

Rank: 9Rank: 9Rank: 9

积分
4095
发表于 2021-4-19 10:30:10 | 显示全部楼层
OMG!介是啥东东!!!
回复 支持 反对

使用道具 举报

0

主题

3990

帖子

1万

积分

4K家园VIP

Rank: 9Rank: 9Rank: 9

积分
10706
发表于 2021-4-19 10:52:08 | 显示全部楼层
多米尼加納☆藍色以外的土地4k
回复 支持 反对

使用道具 举报

0

主题

64

帖子

384

积分

新手上路

Rank: 1

积分
384
发表于 2021-4-19 11:57:00 | 显示全部楼层
感谢你的精彩分享!
回复 支持 反对

使用道具 举报

0

主题

6

帖子

50

积分

新手上路

Rank: 1

积分
50
发表于 2021-4-19 12:43:00 | 显示全部楼层
可以这可清晰度相当于去旅游了
回复 支持 反对

使用道具 举报

0

主题

23

帖子

126

积分

新手上路

Rank: 1

积分
126
发表于 2021-4-19 15:10:56 | 显示全部楼层
谢谢分享~1
回复

使用道具 举报

0

主题

5

帖子

18

积分

新手上路

Rank: 1

积分
18
发表于 2021-4-19 15:19:49 | 显示全部楼层
感谢你的分享!
回复 支持 反对

使用道具 举报

0

主题

2

帖子

34

积分

4K家园VIP

Rank: 9Rank: 9Rank: 9

积分
34
发表于 2021-4-19 15:30:36 | 显示全部楼层
4534534534453434
回复 支持 反对

使用道具 举报

0

主题

1

帖子

6

积分

4K家园VIP

Rank: 9Rank: 9Rank: 9

积分
6
发表于 2021-4-19 19:36:28 | 显示全部楼层
dfsdf sdfsdfsdf
回复 支持 反对

使用道具 举报

0

主题

1

帖子

6

积分

新手上路

Rank: 1

积分
6
发表于 2021-4-19 21:20:42 来自手机 | 显示全部楼层
我来了
回复

使用道具 举报

您需要登录后才可以回帖 登录 | 立即注册

本版积分规则

精彩图文
Archiver|手机版|TAG|Sitemap|新帖|专题|联系我们:邮箱: 4kjia.com@gmail.com   

4k家园   ©2019