[4K电影] [4K首发资源] 杀手柔情 / Deadly Illusions (2021)4K高清下载/12.32GB

[复制链接]

470

主题

485

帖子

4575

积分

4K家园VIP

Rank: 9Rank: 9Rank: 9

积分
4575
 楼主| 发表于 2021-4-17 15:49:55 | 显示全部楼层 |阅读模式
本帖最后由 最爱4K哟 于 2021-4-17 15:52 编辑

QQ图片20210417151432_副本_meitu_2.jpg

◎译  名 杀手柔情/致命幻象(港/台)
◎片  名 Deadly Illusions
◎年  代 2021
◎产  地 美国
◎类  别 剧情 / 惊悚
◎语  言 英语
◎上映日期 2021-03-18(美国)
◎IMDb评分 3.6/10 from 8904 users
◎IMDb链接 https://www.imdb.com/title/tt7897330/?ref_=fn_al_tt_1
◎豆瓣评分 5.3/10 from 526 users
◎豆瓣链接 https://movie.douban.com/subject/35384360/
◎片  长 114分钟
◎导  演 安娜-玛丽亚·伊丽莎白·盎格鲁茨
◎编  剧 安娜-玛丽亚·伊丽莎白·盎格鲁茨
◎主  演 格里尔·格拉默
                   德蒙特·莫罗尼  
                   克里斯汀·戴维斯  
                   珊诺拉·汉普顿  
                   洛拉·玛汀内斯-康宁安  
                   格雷森·贝里



◎简       介:


         一名遇到写作瓶颈的畅销小说家雇佣了一个新保姆来照看她的孩子。随后,小说家开始分不清虚构与现实之间的界限。

General
Complete name                  : Deadly.Illusions.2021.2160p.WEBRip.x265-iNTENSO[TGx]
Format                         : Matroska
Format version                 : Version 4
File size                      : 12.3 GiB
Duration                       : 1 h 54 min
Overall bit rate               : 15.4 Mb/s
Encoded date                   : UTC 2021-04-08 20:01:34
Writing application            : mkvmerge v8.2.0 ('World of Adventure') 64bit
Writing library                : libebml v1.3.1 + libmatroska v1.4.2
IsTruncated                    : Yes

Video
ID                             : 1
Format                         : HEVC
Format/Info                    : High Efficiency Video Coding
Format profile                 : Main@L5.1@High
Codec ID                       : V_MPEGH/ISO/HEVC
Duration                       : 1 h 54 min
Bit rate                       : 14.4 Mb/s
Width                          : 3 840 pixels
Height                         : 1 600 pixels
Display aspect ratio           : 2.40:1
Frame rate mode                : Constant
Frame rate                     : 23.976 (24000/1001) FPS
Color space                    : YUV
Chroma subsampling             : 4:2:0
Bit depth                      : 8 bits
Bits/(Pixel*Frame)             : 0.098
Stream size                    : 11.6 GiB (94%)
Writing library                : x265 3.4+2-73ca1d7be377:[Windows][GCC 10.2.1][64 bit] 8bit+10bit
Encoding settings              : cpuid=1111039 / frame-threads=4 / numa-pools=16 / wpp / no-pmode / no-pme / no-psnr / no-ssim / log-level=2 / input-csp=1 / input-res=3840x1600 / interlace=0 / total-frames=0 / level-idc=51 / high-tier=1 / uhd-bd=0 / ref=4 / no-allow-non-conformance / no-repeat-headers / annexb / aud / hrd / info / hash=0 / no-temporal-layers / no-open-gop / min-keyint=23 / keyint=250 / gop-lookahead=0 / bframes=4 / b-adapt=2 / b-pyramid / bframe-bias=0 / rc-lookahead=20 / lookahead-slices=4 / scenecut=40 / hist-scenecut=0 / radl=0 / no-splice / no-intra-refresh / ctu=64 / min-cu-size=8 / rect / no-amp / max-tu-size=32 / tu-inter-depth=1 / tu-intra-depth=1 / limit-tu=0 / rdoq-level=0 / dynamic-rd=0.00 / no-ssim-rd / signhide / no-tskip / nr-intra=0 / nr-inter=0 / no-constrained-intra / no-strong-intra-smoothing / max-merge=3 / limit-refs=1 / no-limit-modes / me=1 / subme=2 / merange=57 / temporal-mvp / no-frame-dup / no-hme / weightp / no-weightb / no-analyze-src-pics / deblock=-3:-3 / no-sao / no-sao-non-deblock / rd=3 / selective-sao=0 / early-skip / rskip / no-fast-intra / no-tskip-fast / no-cu-lossless / b-intra / no-splitrd-skip / rdpenalty=0 / psy-rd=2.00 / psy-rdoq=0.00 / no-rd-refine / no-lossless / cbqpoffs=0 / crqpoffs=0 / rc=crf / crf=19.0 / qcomp=0.60 / qpstep=4 / stats-write=0 / stats-read=0 / vbv-maxrate=160000 / vbv-bufsize=160000 / vbv-init=0.9 / crf-max=0.0 / crf-min=0.0 / ipratio=1.40 / pbratio=1.30 / aq-mode=2 / aq-strength=1.00 / no-cutree / zone-count=0 / no-strict-cbr / qg-size=32 / no-rc-grain / qpmax=69 / qpmin=0 / no-const-vbv / sar=0 / overscan=0 / videoformat=5 / range=0 / colorprim=1 / transfer=1 / colormatrix=1 / chromaloc=0 / display-window=0 / cll=0,0 / min-luma=0 / max-luma=255 / log2-max-poc-lsb=8 / vui-timing-info / vui-hrd-info / slices=1 / no-opt-qp-pps / no-opt-ref-list-length-pps / no-multi-pass-opt-rps / scenecut-bias=0.05 / hist-threshold=0.01 / no-opt-cu-delta-qp / no-aq-motion / no-hdr10 / no-hdr10-opt / no-dhdr10-opt / no-idr-recovery-sei / analysis-reuse-level=0 / analysis-save-reuse-level=0 / analysis-load-reuse-level=0 / scale-factor=0 / refine-intra=0 / refine-inter=0 / refine-mv=1 / refine-ctu-distortion=0 / no-limit-sao / ctu-info=0 / no-lowpass-dct / refine-analysis-type=0 / copy-pic=1 / max-ausize-factor=1.0 / no-dynamic-refine / no-single-sei / no-hevc-aq / no-svt / no-field / qp-adaptation-range=1.00 / no-scenecut-aware-qpconformance-window-offsets / right=0 / bottom=0 / decoder-max-rate=0
Language                       : German
Default                        : Yes
Forced                         : No
Color range                    : Limited
Color primaries                : BT.709
Transfer characteristics       : BT.709
Matrix coefficients            : BT.709

Audio
ID                             : 2
Format                         : E-AC-3
Format/Info                    : Enhanced AC-3
Commercial name                : Dolby Digital Plus
Codec ID                       : A_EAC3
Duration                       : 1 h 54 min
Bit rate mode                  : Constant
Bit rate                       : 640 kb/s
Channel(s)                     : 6 channels
Channel layout                 : L R C LFE Ls Rs
Sampling rate                  : 48.0 kHz
Frame rate                     : 31.250 FPS (1536 SPF)
Compression mode               : Lossy
Delay relative to video        : 6 ms
Stream size                    : 526 MiB (4%)
Title                          : ENG E-AC3 5.1 640kbit
Language                       : English
Service kind                   : Complete Main
Default                        : No
Forced                         : No

Text
ID                             : 3
Format                         : UTF-8
Codec ID                       : S_TEXT/UTF8
Codec ID/Info                  : UTF-8 Plain Text
Language                       : English
Default                        : No
Forced                         : No



Harone5904.jpg Harone9447.jpg Harone14812.jpg Harone19890.jpg Harone27240.jpg


下载资源拒绝使用迅雷,强烈推荐使用qBittorrent等下载软件,使用PotPlayer软件播放视频效果更佳
游客,如果您要查看本帖隐藏内容请回复




.
回复

使用道具 举报

1

主题

1590

帖子

4378

积分

4K家园VIP

Rank: 9Rank: 9Rank: 9

积分
4378
发表于 2021-4-17 15:50:26 | 显示全部楼层
正好需要啊
回复 支持 反对

使用道具 举报

0

主题

3992

帖子

1万

积分

4K家园VIP

Rank: 9Rank: 9Rank: 9

积分
10715
发表于 2021-4-17 19:06:13 | 显示全部楼层
杀手柔情4k
回复 支持 反对

使用道具 举报

0

主题

2

帖子

13

积分

新手上路

Rank: 1

积分
13
发表于 2021-4-17 20:06:27 | 显示全部楼层
回复给分吗
回复 支持 反对

使用道具 举报

0

主题

9

帖子

359

积分

4K家园VIP

Rank: 9Rank: 9Rank: 9

积分
359
发表于 2021-4-17 21:43:50 | 显示全部楼层
好需要啊
回复

使用道具 举报

1

主题

1041

帖子

3143

积分

4K家园VIP

Rank: 9Rank: 9Rank: 9

积分
3143
发表于 2021-4-17 22:14:10 | 显示全部楼层
嘘,低调。
回复 支持 反对

使用道具 举报

1

主题

1412

帖子

4084

积分

4K家园VIP

Rank: 9Rank: 9Rank: 9

积分
4084
发表于 2021-4-18 03:23:08 | 显示全部楼层
4K应该不错,我也下个看看
回复 支持 反对

使用道具 举报

1

主题

17

帖子

2628

积分

注册会员

Rank: 2

积分
2628
发表于 2021-4-18 06:03:58 | 显示全部楼层
早上好,谢谢分享!
回复 支持 反对

使用道具 举报

4

主题

1362

帖子

3928

积分

4K家园VIP

Rank: 9Rank: 9Rank: 9

积分
3928
发表于 2021-4-18 09:22:29 来自手机 | 显示全部楼层
感谢推荐,确实不错
回复 支持 反对

使用道具 举报

0

主题

1159

帖子

3493

积分

4K家园VIP

Rank: 9Rank: 9Rank: 9

积分
3493
发表于 2021-4-18 10:52:19 | 显示全部楼层
4K家园资源最近貌似越来越多了
回复 支持 反对

使用道具 举报

您需要登录后才可以回帖 登录 | 立即注册

本版积分规则

精彩图文
Archiver|手机版|TAG|Sitemap|新帖|专题|联系我们:邮箱: 4kjia.com@gmail.com   

4k家园   ©2019